Welcome Guest ( Log In | Register )

> Wormreign - Wormreign [ep] (2020), Black Metal
post Jan 14 2020, 17:06:38
Post #1

Правь статус, ####!111
**************
Group: Металариец
Posts: 2,948
Releases: 2637
From: Одесса
On Forums: 12 years 2 months
Thanks: 25602 time(s)
Ukraine


(IMG:http://metalarea.org/images/audiocovers/2020_Jan/acov_tid332629_thumb.jpg)

*Artist: Wormreign
*Album: Wormreign [ep]
*Year: 2020
*Genre: Black Metal
*Country: Canada (IMG:http://metalarea.org/forum/style_images/flags/Canada.png)
*Format: mp3@CBR320kbps
*Size: 35MB

Tracklist:
1.Ad Vermiis 08:18
2.Sangvinarivm 06:33
******************************
Total playing time: 14:51



Technical info
(IMG:http://metalarea.org/images/spectrogram/2020_Jan/a015eb2afa2bdc6154359d499359fd4a.png)
Input File: 02. Sangvinarivm.mp3
Channels : 2
Sample Rate : 44100
Precision : 16-bit
Duration : 00:06:33.32 = 17345588 samples = 29499.3 CDDA sectors
File Size : 15.7M
Bit Rate : 320k
Sample Encoding: MPEG audio (layer I, II or III)
Comments :
Title=Sangvinarivm
Artist=Wormreign
Album=Wormreign (EP)
Tracknumber=2
Year=2020
Genre=138



Register


Go to the top of the page
  Insert nick Quick quote
+Quote Post
 
Start new topic
Replies (1 - 3)
post Jan 18 2020, 07:21:13
Post #2

Пусто
***********
Group: Металариец
Posts: 1,851
Releases: 27
From: Санкт-Петербург
On Forums: 13 years 7 months
Thanks: 1611 time(s)
Russian Federation


не проходите мимо, очень неплохой миник


Thanks:
(1) ingram,
Go to the top of the page
  Insert nick Quick quote
+Quote Post
post Jan 18 2020, 07:39:33
Post #3

.
**************
Group: Металариец
Posts: 3,988
Releases: 0
On Forums: 4 years 6 months
Thanks: 2640 time(s)
Russian Federation


и снова эти исландские диссонансы, плохой миник, проходите мимо.
Go to the top of the page
  Insert nick Quick quote
+Quote Post
post Jan 18 2020, 07:50:35
Post #4

Пусто
***********
Group: Металариец
Posts: 1,851
Releases: 27
From: Санкт-Петербург
On Forums: 13 years 7 months
Thanks: 1611 time(s)
Russian Federation


ЦИТАТА(garmonbozia @ Jan 18 2020, 09:39:33) *
и снова эти исландские диссонансы, плохой миник, проходите мимо.


зануда


Thanks:
Go to the top of the page
  Insert nick Quick quote
+Quote Post

Reply to this topicStart new topic
1 User(s) are reading this topic (1 Guests and 0 Anonymous Users)
0 Members:

 



- Lo-Fi Version Support form
Copyrights and abuse reports form
Time is now: 9th August 2020 - 18:44:23