Welcome Guest ( Log In | Register )

> Releases Upload / Добавление релизов

Добавить релиз тут / Click here to add release
Рекомендованные обменники / Recommended file shares

> Haderach - Cult Of Personality [ep] (2020), Doom/Stoner Metal
post Jan 14 2020, 17:23:42
Post #1

Каждое ваше "Спасибо" помогает мне понять, что я делаю новости не напрасно.
**************
Group: Металариец
Posts: 2,265
Releases: 1997
From: Одесса
On Forums: 11 years 7 months
Thanks: 17799 time(s)
Ukraine


(IMG:http://metalarea.org/images/audiocovers/2020_Jan/acov_tid332630_thumb.jpg)

*Artist: Haderach
*Album: Cult Of Personality [ep]
*Year: 2020
*Genre: Doom/Stoner Metal
*Country: Canada (IMG:http://metalarea.org/forum/style_images/flags/Canada.png)
*Format: mp3@CBR320kbps
*Size: 66MB

Tracklist:
1.Space Crusade 10:02
2.Vision from Within 08:42
3.Ghost of the Desert 08:37
******************************
Total playing time: 27:21



Technical info
(IMG:http://metalarea.org/images/spectrogram/2020_Jan/b318971be2f61b058aa07cca5375802c.png)
Input File: 02. Vision From Within.mp3
Channels : 2
Sample Rate : 44100
Precision : 16-bit
Duration : 00:08:42.19 = 23028711 samples = 39164.5 CDDA sectors
File Size : 20.9M
Bit Rate : 320k
Sample Encoding: MPEG audio (layer I, II or III)
Comments :
Title=Vision From Within
Artist=Haderach
Album=Cult of Personality (EP)
Tracknumber=2
Year=2020
Genre=Doom/Stoner Metal



Register


Go to the top of the page
  Insert nick Quick quote
+Quote Post
 
Start new topic
Replies (1 - 1)
post Jan 14 2020, 18:06:04
Post #2

hearer & reader
**************
Group: Металариец
Posts: 8,288
Releases: 113
From: Moscow
On Forums: 12 years 4 months
Thanks: 7885 time(s)
Russian Federation


О, ещё одна жертва Херберта (IMG:style_emoticons/default/smile3.gif)
Go to the top of the page
  Insert nick Quick quote
+Quote Post

Reply to this topicStart new topic
1 User(s) are reading this topic (1 Guests and 0 Anonymous Users)
0 Members:

 



- Lo-Fi Version Support form
Copyrights and abuse reports form
Time is now: 23rd January 2020 - 02:35:05