Welcome Guest ( Log In | Register )

> Releases Upload / Добавление релизов

Добавить релиз тут / Click here to add release
Рекомендованные обменники / Recommended file shares

 
Reply to this topicStart new topic
> Ad Omega - Golden Age In Blasphemy [ep] (2020), Black Metal
post Jan 14 2020, 18:15:37
Post #1

Каждое ваше "Спасибо" помогает мне понять, что я делаю новости не напрасно.
**************
Group: Металариец
Posts: 2,265
Releases: 1997
From: Одесса
On Forums: 11 years 7 months
Thanks: 17799 time(s)
Ukraine


(IMG:http://metalarea.org/images/audiocovers/2020_Jan/acov_tid332632_thumb.jpg)

*Artist: Ad Omega
*Album: Golden Age In Blasphemy [ep]
*Year: 2020
*Genre: Black Metal
*Country: Italy (IMG:http://metalarea.org/forum/style_images/flags/Italy.png)
*Format: mp3@CBR320kbps
*Size: 41MB

Tracklist:
1.Non Serviam 00:58
2.Lux(I)Fer 05:36
3.Heretical Path 03:35
4.Great Mother Lilith 07:08
******************************
Total playing time: 17:17



Extended info
FLAC RIP

Line - up:

Noktvrnal - Guitars, Vocals (Sethlans)
Phersu - Guitars (lead), Bass, Vocals (backing), Drum programming, Synths (Shoreborn, Tractors, Voltumna, ex-Betelgeuse, ex-November Leaf, LSMD, ex-Mizar)

(IMG:https://www.metal-archives.com/images/3/5/4/0/3540455015_photo.jpg?4801)


Technical info
(IMG:http://metalarea.org/images/spectrogram/2020_Jan/177e408d577874c975e9e35ea087e37d.png)
Input File: 02. Lux(I)Fer.mp3
Channels : 2
Sample Rate : 44100
Precision : 16-bit
Duration : 00:05:36.90 = 14857114 samples = 25267.2 CDDA sectors
File Size : 13.5M
Bit Rate : 320k
Sample Encoding: MPEG audio (layer I, II or III)
Comments :
Title=Lux(I)Fer
Artist=Ad Omega
Album=Golden Age in Blasphemy (EP)
Tracknumber=2
Year=2020
Genre=138



Register


Go to the top of the page
  Insert nick Quick quote
+Quote Post

Reply to this topicStart new topic
2 User(s) are reading this topic (2 Guests and 0 Anonymous Users)
0 Members:

 



- Lo-Fi Version Support form
Copyrights and abuse reports form
Time is now: 23rd January 2020 - 03:31:25