Welcome Guest ( Log In | Register )

> И неформату есть предел.

Рэп/хип-хоп/шансон/поп удаляются. Для них есть свои порталы.

> Neutral - The World Of Disbelief (2019), Dark Folk (D5)
post Jan 14 2020, 19:22:15
Post #1

Два Литра
**
Group: Завсегдатай
Posts: 146
Releases: 4
From: Санкт-Петербург
On Forums: 13 years 8 months
Thanks: 328 time(s)
Russian Federation


(IMG:http://metalarea.org/images/audiocovers/2020_Jan/acov_tid332634_thumb.jpg)

*Artist: Neutral
*Album: The World Of Disbelief
*Year: 2019
*Genre: Dark Folk
*Country: Russian Federation (IMG:http://metalarea.org/forum/style_images/flags/Russian%20Federation.png)
*Format: mp3@VBR261kbps
*Size: 82MB

Tracklist:
01. The World Of Disbelief 05:50
02. Ghost Of All Wars 03:58
03. In The Wastelands Of Mine 04:43
04. Carvings In Stone 05:53
05. Beyond The Emptiness (Playroom II) 05:19
06. Bury 04:44
07. Unholy Day 06:08
08. When The Story Ends 05:57
******************************
Total playing time: 42:33



Extended info
Не очень много альбомов слушал в данном стиле, а понравилось так и совсем мало что, но вот этот недавно прослушанный альбом как-то сразу зацепил.


Technical info
(IMG:http://metalarea.org/images/spectrogram/2020_Jan/f8537c233add14eb300eec767b4e49c3.png)
Input File: 01 - The World Of Disbelief.mp3
Channels : 2
Sample Rate : 44100
Precision : 16-bit
Duration : 00:05:50.43 = 15454051 samples = 26282.4 CDDA sectors
File Size : 11.4M
Bit Rate : 261k
Sample Encoding: MPEG audio (layer I, II or III)
Comments :
Title=The World Of Disbelief
Artist=Neutral
Album=The World Of Disbelief
Tracknumber=01
Year=2019
Genre=Dark Folk



Register


Go to the top of the page
  Insert nick Quick quote
+Quote Post
 
Start new topic
Replies (1 - 3)
post Jan 15 2020, 05:07:18
Post #2

Group: Дух
Posts: 1
Releases: 0
On Forums: 2 years 4 weeks
Thanks: 0 time(s)
Russian Federation


Serpents In The Dawn 2008 икона стиля
Go to the top of the page
  Insert nick Quick quote
+Quote Post
post Jan 15 2020, 05:36:39
Post #3

Два Литра
**
Group: Завсегдатай
Posts: 146
Releases: 4
From: Санкт-Петербург
On Forums: 13 years 8 months
Thanks: 328 time(s)
Russian Federation


ЦИТАТА(tOmV @ 15th January 2020 - 07:07:18) *
Serpents In The Dawn 2008 икона стиля

Уже закачал, буду слушать, ибо до с группой до этого был не знаком.
Go to the top of the page
  Insert nick Quick quote
+Quote Post
post Jan 15 2020, 05:57:08
Post #4

Четыре Литра
****
Group: Металариец
Posts: 398
Releases: 0
On Forums: 1 month 3 weeks
Thanks: 270 time(s)
Russian Federation


Ого, Эш снова запел на английском. Приятная неожиданность.
Go to the top of the page
  Insert nick Quick quote
+Quote Post

Reply to this topicStart new topic
1 User(s) are reading this topic (1 Guests and 0 Anonymous Users)
0 Members:

 



- Lo-Fi Version Support form
Copyrights and abuse reports form
Time is now: 24th January 2020 - 23:34:22