Welcome Guest ( Log In | Register )

> И неформату есть предел.

Рэп/хип-хоп/шансон/поп удаляются. Для них есть свои порталы.

> Culto Al Qondor - Templos (2017), Psychedelic Rock/Krautrock
post Jan 14 2020, 19:26:35
Post #1

Правь статус, ####!111
**************
Group: Металариец
Posts: 45,125
Releases: 695
On Forums: 10 years 8 months
Thanks: 36859 time(s)
Russian Federation


(IMG:http://metalarea.org/images/audiocovers/2020_Jan/acov_tid332635_thumb.jpg)

*Artist: Culto Al Qondor
*Album: Templos
*Year: 2017
*Genre: Psychedelic Rock/Krautrock
*Country: Peru (IMG:http://metalarea.org/forum/style_images/flags/Peru.png)
*Format: mp3@VBR289kbps
*Size: 94MB

Tracklist:
1. Martillo 11:04
2. Amanecer en Tres Cruces 11:01
3. Antiguos Dioses sobre Chilca 13:00
4. Templos 10:29
******************************
Total playing time: 45:34



Technical info
(IMG:http://metalarea.org/images/spectrogram/2020_Jan/a692241cd90928aee4121f9706dcdf44.png)
Input File: 01. Martillo.mp3
Channels : 2
Sample Rate : 44100
Precision : 16-bit
Duration : 00:11:04.14 = 29288442 samples = 49810.3 CDDA sectors
File Size : 22.3M
Bit Rate : 268k
Sample Encoding: MPEG audio (layer I, II or III)
Comments :
Title=Martillo
Artist=Culto al Qondor
Album=Templos
Tracknumber=1
Year=2017
Genre=Stoner Rock



Register


Go to the top of the page
  Insert nick Quick quote
+Quote Post
 
Start new topic
Replies (1 - 1)
post Jan 15 2020, 07:55:55
Post #2

Правь статус, ####!111
**************
Group: Металариец
Posts: 45,125
Releases: 695
On Forums: 10 years 8 months
Thanks: 36859 time(s)
Russian Federation


Динамично и психоделично.
Go to the top of the page
  Insert nick Quick quote
+Quote Post

Reply to this topicStart new topic
1 User(s) are reading this topic (1 Guests and 0 Anonymous Users)
0 Members:

 



- Lo-Fi Version Support form
Copyrights and abuse reports form
Time is now: 26th February 2020 - 11:52:01