Welcome Guest ( Log In | Register )

> И неформату есть предел.

Рэп/хип-хоп/шансон/поп удаляются. Для них есть свои порталы.

> Bauda - Brvjo (2019), Alternative/Post-Rock
post Jan 14 2020, 19:28:09
Post #1

Правь статус, ####!111
**************
Group: Металариец
Posts: 2,958
Releases: 2649
From: Одесса
On Forums: 12 years 2 months
Thanks: 25778 time(s)
Ukraine


(IMG:http://metalarea.org/images/audiocovers/2020_Jan/acov_tid332636_thumb.jpg)

*Artist: Bauda
*Album: Brvjo
*Year: 2019
*Genre: Alternative/Post-Rock
*Country: Chile (IMG:http://metalarea.org/forum/style_images/flags/Chile.png)
*Format: mp3@CBR320kbps
*Size: 108MB

Tracklist:
1.Trance 06:03
2.Lúmina 06:22
3.Astro sur 05:32
4.Éter 06:30
5.Global Mesmerize 04:31
6.Brvjo 07:57
7.Solsticio 08:03
******************************
Total playing time: 44:58



Extended info
Line - up:

Nicolas Recabarren - Drums
Pablo Selman - Bass
Eliseo Peña - Keyboards (Asterion, Favna Abisal, Nébirus)
César Márquez - Vocals, Guitars, Keyboards (Leuku, ex-Nefastus Abbatia, ex-Animus Mortis, ex-AstorVoltaires (live))


Technical info
(IMG:http://metalarea.org/images/spectrogram/2020_Jan/82eafae1dbd0b2f02fff8732b2db49d5.png)
Input File: 07 - Solsticio.mp3
Channels : 2
Sample Rate : 44100
Precision : 16-bit
Duration : 00:08:02.90 = 21296022 samples = 36217.7 CDDA sectors
File Size : 19.3M
Bit Rate : 320k
Sample Encoding: MPEG audio (layer I, II or III)
Comments :
Title=Solsticio
Artist=Bauda
Album=Brvjo
Tracknumber=7
Year=2019
Genre=Post-Metal/Folk Metal



Register


Go to the top of the page
  Insert nick Quick quote
+Quote Post
 
Start new topic
Replies (1 - 4)
post Jan 15 2020, 10:37:58
Post #2

Наливай!
**************
Group: Металариец
Posts: 5,826
Releases: 27
From: Москва-Бибирево
On Forums: 12 years 5 months
Thanks: 2965 time(s)
Russian Federation


Go to the top of the page
  Insert nick Quick quote
+Quote Post
post Jan 15 2020, 13:00:40
Post #3

Маньяк
**********
Group: Металариец
Posts: 1,182
Releases: 37
From: великий город Питер
On Forums: 14 years 8 months
Thanks: 2009 time(s)
Russian Federation


фолка не замечено, метала исчезающе мало
Go to the top of the page
  Insert nick Quick quote
+Quote Post
post Jan 15 2020, 13:05:37
Post #4

Dark Ambient Shoujo
**********
Group: Металариец
Posts: 1,289
Releases: 2
On Forums: 11 years 7 months
Thanks: 736 time(s)
Russian Federation


Испанский (IMG:style_emoticons/default/22.gif)
Go to the top of the page
  Insert nick Quick quote
+Quote Post
post Jan 15 2020, 13:06:45
Post #5

Три Литра
***
Group: Завсегдатай
Posts: 273
Releases: 0
From: Россия
On Forums: 8 years 6 months
Thanks: 90 time(s)
Russian Federation


Жанр альт рок
Go to the top of the page
  Insert nick Quick quote
+Quote Post

Reply to this topicStart new topic
1 User(s) are reading this topic (1 Guests and 0 Anonymous Users)
0 Members:

 



- Lo-Fi Version Support form
Copyrights and abuse reports form
Time is now: 15th August 2020 - 14:42:32