Welcome Guest ( Log In | Register )

> Releases Upload / Добавление релизов

Добавить релиз тут / Click here to add release
Рекомендованные обменники / Recommended file shares

> Raging Fate - Bloodstained Gold (2019), Heavy/Power Metal
post Jan 14 2020, 19:34:47
Post #1

MDM-Thrash Metal
**************
Group: Металариец
Posts: 9,203
Releases: 767
From: Одесса
On Forums: 12 years 5 months
Thanks: 20670 time(s)
Ukraine


(IMG:http://metalarea.org/images/audiocovers/2020_Jan/acov_tid332638_thumb.jpg)

*Artist: Raging Fate
*Album: Bloodstained Gold
*Year: 2019
*Genre: Heavy/Power Metal
*Country: Sweden (IMG:http://metalarea.org/forum/style_images/flags/Sweden.png)
*Format: mp3@CBR320kbps
*Size: 107MB

Tracklist:
01. Hymn of the Privateer
02. Bloodstained Gold
03. The Flying Dutchman
04. Soulreaver
05. Raging Fate
06. Alone in the Dark
07. The Wrath of gir and Ran
08. A Crown of Thorns
09. Marooned
10. Lies of the Wicked
11. Dracula
******************************
Total playing time: 44:30



(IMG:http://metalarea.org/images/youtube.png)

Extended info
Лавры Раннингов не дают покоя...

Line Up:
Mattias Lovdal - Vocals, Bass, Guitars
Juha Niemi - Guitars
Thomas Eriksson - Guitars
Stefan Almqvist - Drums


Technical info
(IMG:http://metalarea.org/images/spectrogram/2020_Jan/ef52e0010c1af20be3ae8cbef11f254d.png)
Input File: 02. Bloodstained Gold.mp3
Channels : 2
Sample Rate : 44100
Precision : 16-bit
Duration : 00:05:28.72 = 14496552 samples = 24654 CDDA sectors
File Size : 13.3M
Bit Rate : 323k
Sample Encoding: MPEG audio (layer I, II or III)
Comments :
Title=Bloodstained Gold
Artist=Raging Fate
Album=Bloodstained Gold
Tracknumber=2/11
Year=2019
Genre=9
Discnumber=1/1



Register


Go to the top of the page
  Insert nick Quick quote
+Quote Post
 
Start new topic
Replies (1 - 1)
post Jan 17 2020, 14:40:37
Post #2

Правь статус, ####!111
**************
Group: Металариец
Posts: 2,813
Releases: 8
From: Dnipro
On Forums: 11 years 6 months
Thanks: 891 time(s)
Ukraine


Однако отличный heavy metal, причем изрядно отдающий нотками Running Wild. (IMG:style_emoticons/default/20.gif)


Thanks:
Go to the top of the page
  Insert nick Quick quote
+Quote Post

Reply to this topicStart new topic
1 User(s) are reading this topic (1 Guests and 0 Anonymous Users)
0 Members:

 



- Lo-Fi Version Support form
Copyrights and abuse reports form
Time is now: 23rd January 2020 - 03:01:03