Welcome Guest ( Log In | Register )

 
Reply to this topicStart new topic
> Zac Leaser - Effigies [ep] (2019), Technical/Melodic Death Metal (D6)
post Jan 14 2020, 21:25:26
Post #1

MDM-Thrash Metal
**************
Group: Металариец
Posts: 9,723
Releases: 972
From: Одесса
On Forums: 13 years 5 days
Thanks: 24602 time(s)
Ukraine


(IMG:http://metalarea.org/images/audiocovers/2020_Jan/acov_tid332642_thumb.jpg)

*Artist: Zac Leaser
*Album: Effigies [ep]
*Year: 2019
*Genre: Technical/Melodic Death Metal
*Country: United States (IMG:http://metalarea.org/forum/style_images/flags/United%20States.png)
*Format: mp3@CBR320kbps
*Size: 62MB

Tracklist:
1. Crimson 04:08
2. Damnation 06:05
3. Egoist 04:47
4. Totem 05:21
5. Tribulations 05:12
******************************
Total playing time: 25:33



(IMG:http://metalarea.org/images/youtube.png)

Technical info
(IMG:http://metalarea.org/images/spectrogram/2020_Jan/02b3d232f4f6b69e5feff3413fdec5ab.png)
Input File: 01 Crimson.mp3
Channels : 2
Sample Rate : 44100
Precision : 16-bit
Duration : 00:00:00.25 = 10937 samples = 18.6003 CDDA sectors
File Size : 10.7M
Bit Rate : 344M
Sample Encoding: MPEG audio (layer I, II or III)
Comments :
Title=Crimson
Artist=Zac Leaser
Album=Effigies
Tracknumber=1/5
Year=2019-19-20
Genre=Metal
Discnumber=1/1



Register


Go to the top of the page
  Insert nick Quick quote
+Quote Post

Reply to this topicStart new topic
1 User(s) are reading this topic (1 Guests and 0 Anonymous Users)
0 Members:

 



- Lo-Fi Version Support form
Copyrights and abuse reports form
Time is now: 15th August 2020 - 05:36:01