Welcome Guest ( Log In | Register )

> Releases Upload / Добавление релизов

Добавить релиз тут / Click here to add release
Рекомендованные обменники / Recommended file shares

> Kalmankantaja - Nostalgia II: My Kingdom (2020), Black Metal
post Jan 14 2020, 22:05:33
Post #1

Detective Godzilla
Group Icon
Group: Moderation team
Posts: 3,290
Releases: 283
On Forums: 8 years 11 months
Thanks: 10117 time(s)
Russian Federation


(IMG:https://metalarea.org/images/audiocovers/2020_Jan/acov_tid332645_thumb.jpg)

*Artist: Kalmankantaja
*Album: Nostalgia II: My Kingdom
*Year: 2020
*Genre: Black Metal
*Country: Finland (IMG:https://metalarea.org/forum/style_images/flags/Finland.png)
*Format: mp3@CBR320kbps
*Size: 94MB

Tracklist:
01. No God, No Love 09:52
02. Soulless 09:39
03. My Kingdom pt.1 09:28
04. My Kingdom pt.2 10:20
******************************
Total playing time: 39:19



Extended info
Personal purchase

My Kingdom was created in December 2019
at Patologian Laboratorio.
Al music written and performed by Grim666.
Cover art by Hellish Razor.

This is the second gathering of songs to celebrate
the musical influences which ultimately lead me
on to create Kalmankantaja. The Nostalgia series
only exists to worship the old darkness.
HVNK KVLT


Technical info
(IMG:https://metalarea.org/images/spectrogram/2020_Jan/6e675f794992f17f3c2421983669e063.png)
Input File: Kalmankantaja - Nostalgia II- My Kingdom - 02 Soulless.mp3
Channels : 2
Sample Rate : 44100
Precision : 16-bit
Duration : 00:09:39.79 = 25568871 samples = 43484.5 CDDA sectors
File Size : 23.4M
Bit Rate : 323k
Sample Encoding: MPEG audio (layer I, II or III)
Comments :
Title=Soulless
Artist=Kalmankantaja
Album=Nostalgia II: My Kingdom
Tracknumber=2
Year=2020



Register


Go to the top of the page
  Insert nick Quick quote
+Quote Post
 
Start new topic
Replies (1 - 6)
post Jan 15 2020, 17:19:38
Post #2

I hate you all
**************
Group: Металариец
Posts: 2,166
Releases: 76
From: Ukraine
On Forums: 12 years 8 months
Thanks: 5457 time(s)
Ukraine


Можно плз на другие обменники залить ?
Go to the top of the page
  Insert nick Quick quote
+Quote Post
post Jan 15 2020, 18:30:47
Post #3

Правь статус, ####!111
**************
Group: Металариец
Posts: 6,798
Releases: 165
From: URUGUAY
On Forums: 13 years 3 months
Thanks: 18059 time(s)
Uruguay


mirror
Register


Go to the top of the page
  Insert nick Quick quote
+Quote Post
post Jan 16 2020, 15:48:33
Post #4

Правь статус, ####!111
**************
Group: Металариец
Posts: 2,805
Releases: 8
From: Dnipro
On Forums: 11 years 6 months
Thanks: 891 time(s)
Ukraine


О боже, зачем он такое с вокалом сотворил? (IMG:style_emoticons/default/22.gif)
Совсем кукуха от многостаночности поехала.
Go to the top of the page
  Insert nick Quick quote
+Quote Post
post Jan 16 2020, 16:06:47
Post #5

Detective Godzilla
Group Icon
Group: Moderation team
Posts: 3,290
Releases: 283
On Forums: 8 years 11 months
Thanks: 10117 time(s)
Russian Federation


isvili, На поздних релизах вокал пишет не он
Go to the top of the page
  Insert nick Quick quote
+Quote Post
post Jan 16 2020, 17:39:23
Post #6

I hate you all
**************
Group: Металариец
Posts: 2,166
Releases: 76
From: Ukraine
On Forums: 12 years 8 months
Thanks: 5457 time(s)
Ukraine


Ну насколько я в курсе , вокалист с финской команды Malum был по крайней мере . ну его обвинить в убогом вокале , как то несерьёзно . Может какая конценция вокала поменялась , будем слушать и делать выводы . ну эти финники не подводили не раз . Хоть они и работаю не покладая рук , ну не когда не давали реальный фуфель . У них всегда есть , что послушать и от чего припереться . Да много материала они выпускают , но как говориться , в колличестве , даже очень много как говориться жемчючин , за , что он и нравяться . У грима очень много просто есть идей , которые он до этого воплощал во многих своих проектах , а тут просто он уже сосредоточился на одном коллективе . помните его проект Oath с сплитом с Azaghal , там два трека , ну какие , просто бомба , а его команда Lathspell , ну не кто не может его упрекнуть , в том , что он писал фуфель , просто его рвет от идей , да и молодец , респект ему . Пусть кто то скажет , что в этом проекте нет с десяток треков от которых мурашки по коже .
Go to the top of the page
  Insert nick Quick quote
+Quote Post
post Jan 16 2020, 17:57:57
Post #7

Detective Godzilla
Group Icon
Group: Moderation team
Posts: 3,290
Releases: 283
On Forums: 8 years 11 months
Thanks: 10117 time(s)
Russian Federation


rimfrost, Именно этот релиз Grim записывал сам. Ну и вообще, оба вот ностальжи-полноформата. Как и раньше. Tyrant с ним по-моему с 2015 или 2016, не вспомню точно. Вот с того времени, в основном, все вокалы его.
Go to the top of the page
  Insert nick Quick quote
+Quote Post

Reply to this topicStart new topic
1 User(s) are reading this topic (1 Guests and 0 Anonymous Users)
0 Members:

 



- Lo-Fi Version Support form
Copyrights and abuse reports form
Time is now: 22nd January 2020 - 01:16:50