Welcome Guest ( Log In | Register )

> Releases Upload / Добавление релизов

Добавить релиз тут / Click here to add release
Рекомендованные обменники / Recommended file shares

> Sleepwraith - Day Terrors (2020), Melodic Death Metal
post Jan 15 2020, 06:08:01
Post #1

Правь статус, ####!111
**************
Group: Металариец
Posts: 20,300
Releases: 13836
From: Г.Харьков
On Forums: 7 years 8 months
Thanks: 242075 time(s)
Unknown


(IMG:http://metalarea.org/images/audiocovers/2020_Jan/acov_tid332647_thumb.jpg)

*Artist: Sleepwraith
*Album: Day Terrors
*Year: 2020
*Genre: Melodic Death Metal
*Country: Canada (IMG:http://metalarea.org/forum/style_images/flags/Canada.png)
*Format: mp3@VBR272kbps
*Size: 108MB

Tracklist:
1. The Aphelion Complex
2. Transorbital Decay
3. Anamnesis
4. Burial Plot
5. Biomite
6. Sol
7. Carnival Dread
8. A Demon’s Pawn and the Abyss
9. The Vile, Raptured
10. The Vile Raptured
11. Dystory
******************************
Total playing time: 54:58



Extended info
Scene CD-Rip
Seedy Mitchell- Guitars/Vocals
Ryan Biggs- Drums



Technical info
(IMG:http://metalarea.org/images/spectrogram/2020_Jan/32e2047afbef7c1bb7148e8a4051657d.png)
Input File: 06-sleepwraith-sol.mp3
Channels : 2
Sample Rate : 44100
Precision : 16-bit
Duration : 00:05:09.73 = 13659225 samples = 23230 CDDA sectors
File Size : 10.7M
Bit Rate : 277k
Sample Encoding: MPEG audio (layer I, II or III)
Comments :
Title=Sol
Artist=Sleepwraith
Album=Day Terrors
Tracknumber=6/11
Year=2020-00-00
Genre=Metal



Register


Go to the top of the page
  Insert nick Quick quote
+Quote Post
 
Start new topic
Replies (1 - 4)
post Jan 15 2020, 18:41:56
Post #2

Правь статус, ####!111
**************
Group: Металариец
Posts: 20,300
Releases: 13836
From: Г.Харьков
On Forums: 7 years 8 months
Thanks: 242075 time(s)
Unknown


Cloud Mail 320
Register



Thanks:
(2) cesar, Diflock,
Go to the top of the page
  Insert nick Quick quote
+Quote Post
post Jan 16 2020, 15:43:53
Post #3

Правь статус, ####!111
**************
Group: Металариец
Posts: 2,813
Releases: 8
From: Dnipro
On Forums: 11 years 6 months
Thanks: 891 time(s)
Ukraine


Обычно канадцы в этом стиле чего то получше выдают.
Go to the top of the page
  Insert nick Quick quote
+Quote Post
post Jan 20 2020, 08:54:07
Post #4

Ъ
**************
Group: Металариец
Posts: 9,870
Releases: 9
On Forums: 11 years 2 weeks
Thanks: 1941 time(s)
Sweden


Да много где выдают получше, это третьесорт с низов.
Go to the top of the page
  Insert nick Quick quote
+Quote Post
post Jan 20 2020, 11:29:31
Post #5

brutalcesar
**************
Group: Металариец
Posts: 17,837
Releases: 67
From: Рязань
On Forums: 11 years 4 days
Thanks: 9461 time(s)
Russian Federation


Норм! (IMG:style_emoticons/default/metaler.gif)
Go to the top of the page
  Insert nick Quick quote
+Quote Post

Reply to this topicStart new topic
1 User(s) are reading this topic (1 Guests and 0 Anonymous Users)
0 Members:

 



- Lo-Fi Version Support form
Copyrights and abuse reports form
Time is now: 23rd January 2020 - 02:35:27