Welcome Guest ( Log In | Register )

> Releases Upload / Добавление релизов

Добавить релиз тут / Click here to add release
Рекомендованные обменники / Recommended file shares

> Necrotombs - Corpse Feeding Worms (2020), Old School Death Metal
post Jan 15 2020, 06:31:59
Post #1

Правь статус, ####!111
**************
Group: Металариец
Posts: 20,300
Releases: 13836
From: Г.Харьков
On Forums: 7 years 8 months
Thanks: 242075 time(s)
Unknown


(IMG:http://metalarea.org/images/audiocovers/2020_Jan/acov_tid332648_thumb.jpg)

*Artist: Necrotombs
*Album: Corpse Feeding Worms
*Year: 2020
*Genre: Old School Death Metal
*Country: Italy (IMG:http://metalarea.org/forum/style_images/flags/Italy.png)
*Format: mp3@CBR320kbps
*Size: 97MB

Tracklist:
01. Through the Storm They Will Rise (Intro)
02. Process of Decomposition
03. Blood Drained
04. Devoured from Inside
05. Choose the Coffin
06. Perpetual Mortuary Silence
07. Corpse Feeding Worms
08. Minced in the Meat Grinder
09. Shut Up Bitch
10. Slow Motion Crash
11. Slowly Consumed
******************************
Total playing time: 42:02



Extended info
Xerberus Everything (2015-present)
See also: Stigmhate, ex-Death Squad, ex-Necrophy, ex-Rapist, ex-Demise of God



Technical info
(IMG:http://metalarea.org/images/spectrogram/2020_Jan/9a52c738755d977c2d6d6e1ac914931b.png)
Input File: 5 - Choose the Coffin.mp3
Channels : 2
Sample Rate : 44100
Precision : 16-bit
Duration : 00:04:15.57 = 11270637 samples = 19167.8 CDDA sectors
File Size : 10.3M
Bit Rate : 322k
Sample Encoding: MPEG audio (layer I, II or III)
Comments :
Title=Choose the Coffin
Artist=Necrotombs
Album=Corpse Feeding Worms
Tracknumber=5
Year=2020
Genre=Metal
Discnumber=1



Register


Go to the top of the page
  Insert nick Quick quote
+Quote Post
 
Start new topic
Replies (1 - 1)
post Jan 15 2020, 19:28:21
Post #2

Два Литра
**
Group: Завсегдатай
Posts: 195
Releases: 0
From: Madrid
On Forums: 11 years 4 days
Thanks: 42 time(s)
Mexico


Go to the top of the page
  Insert nick Quick quote
+Quote Post

Reply to this topicStart new topic
2 User(s) are reading this topic (2 Guests and 0 Anonymous Users)
0 Members:

 



- Lo-Fi Version Support form
Copyrights and abuse reports form
Time is now: 23rd January 2020 - 02:35:42