Welcome Guest ( Log In | Register )

> Releases Upload / Добавление релизов

Добавить релиз тут / Click here to add release
Рекомендованные обменники / Recommended file shares

 
Reply to this topicStart new topic
> Earth Collider - Twilight Of Man (2020), Heavy/Thrash Metal
post Jan 15 2020, 06:55:37
Post #1

Правь статус, ####!111
**************
Group: Металариец
Posts: 20,297
Releases: 13832
From: Г.Харьков
On Forums: 7 years 8 months
Thanks: 241858 time(s)
Unknown


(IMG:http://metalarea.org/images/audiocovers/2020_Jan/acov_tid332650_thumb.jpg)

*Artist: Earth Collider
*Album: Twilight Of Man
*Year: 2020
*Genre: Heavy/Thrash Metal
*Country: United States (IMG:http://metalarea.org/forum/style_images/flags/United%20States.png)
*Format: mp3@CBR320kbps
*Size: 83MB

Tracklist:
01. Saganic Inquistion
02. Mariana's
03. Liar King
04. Twilight of Man
05. Metal Spy
06. Cult of Hate
07. Pathology of Fear
08. Age of Eternal War (Under Surveillance)
******************************
Total playing time: 36:13



Technical info
(IMG:http://metalarea.org/images/spectrogram/2020_Jan/f06fd893d32a0966f094e39a26d4bde3.png)
Input File: 4 - Twilight of Man.mp3
Channels : 2
Sample Rate : 44100
Precision : 16-bit
Duration : 00:07:44.64 = 20490580 samples = 34847.9 CDDA sectors
File Size : 18.7M
Bit Rate : 321k
Sample Encoding: MPEG audio (layer I, II or III)
Comments :
Title=Twilight Of Man
Artist=Earth Collider
Album=Twilight Of Man
Tracknumber=4
Year=2020
Genre=Metal
Discnumber=1



Register


Go to the top of the page
  Insert nick Quick quote
+Quote Post

Reply to this topicStart new topic
1 User(s) are reading this topic (1 Guests and 0 Anonymous Users)
0 Members:

 



- Lo-Fi Version Support form
Copyrights and abuse reports form
Time is now: 21st January 2020 - 23:58:45