Welcome Guest ( Log In | Register )

> Releases Upload / Добавление релизов

Добавить релиз тут / Click here to add release
Рекомендованные обменники / Recommended file shares

> Vocifer - Boiuna (2020), Heavy Metal
post Jan 15 2020, 07:10:12
Post #1

Правь статус, ####!111
**************
Group: Металариец
Posts: 20,297
Releases: 13832
From: Г.Харьков
On Forums: 7 years 8 months
Thanks: 241862 time(s)
Unknown


(IMG:http://metalarea.org/images/audiocovers/2020_Jan/acov_tid332651_thumb.jpg)

*Artist: Vocifer
*Album: Boiuna
*Year: 2020
*Genre: Heavy Metal
*Country: Brazil (IMG:http://metalarea.org/forum/style_images/flags/Brazil.png)
*Format: mp3@CBR320kbps
*Size: 101MB

Tracklist:
01. Release the Night
02. Lady Moon
03. The Curse of River's Lord - No. 1
04. The Curse of River's Lord - No. 2
05. Hummingbird
06. Primal Clash
07. Up on the Hills
08. Lord of the Rain
09. War of Vendetta
10. Used to Be
******************************
Total playing time: 43:49



Extended info
João Noleto - Vocal
Lucas Lago - Baixo
Pedro Scheid - Guitarra
Gustavo Oliveira - Guitarra



Technical info
(IMG:http://metalarea.org/images/spectrogram/2020_Jan/a5b6794dee615d37c5915e3de0757efb.png)
Input File: 05 - Hummingbird.mp3
Channels : 2
Sample Rate : 44100
Precision : 16-bit
Duration : 00:04:32.79 = 12029951 samples = 20459.1 CDDA sectors
File Size : 11.1M
Bit Rate : 324k
Sample Encoding: MPEG audio (layer I, II or III)
Comments :
Title=Hummingbird
Artist=Vocifer
Album=Boiuna
Tracknumber=5
Year=2020
Genre=Heavy Metal
Discnumber=1



Register


Go to the top of the page
  Insert nick Quick quote
+Quote Post
 
Start new topic
Replies (1 - 1)
post Jan 15 2020, 19:22:05
Post #2

Два Литра
**
Group: Завсегдатай
Posts: 195
Releases: 0
From: Madrid
On Forums: 11 years 3 days
Thanks: 42 time(s)
Mexico


Go to the top of the page
  Insert nick Quick quote
+Quote Post

Reply to this topicStart new topic
1 User(s) are reading this topic (1 Guests and 0 Anonymous Users)
0 Members:

 



- Lo-Fi Version Support form
Copyrights and abuse reports form
Time is now: 22nd January 2020 - 01:13:01