Welcome Guest ( Log In | Register )

> Releases Upload / Добавление релизов

Добавить релиз тут / Click here to add release
Рекомендованные обменники / Recommended file shares

 
Reply to this topicStart new topic
> Cova Rasa - Cruzando Infernos (2020), Heavy Metal
post Jan 15 2020, 07:25:46
Post #1

Правь статус, ####!111
**************
Group: Металариец
Posts: 20,300
Releases: 13836
From: Г.Харьков
On Forums: 7 years 8 months
Thanks: 242077 time(s)
Unknown


(IMG:http://metalarea.org/images/audiocovers/2020_Jan/acov_tid332652_thumb.jpg)

*Artist: Cova Rasa
*Album: Cruzando Infernos
*Year: 2020
*Genre: Heavy Metal
*Country: Brazil (IMG:http://metalarea.org/forum/style_images/flags/Brazil.png)
*Format: mp3@CBR320kbps
*Size: 139MB

Tracklist:
01. Penumbra
02. Lobo Uivante
03. Condessa de Sangue
04. Saga de um Justiceiro
05. San Zhi
06. Batalha dos Guararapes
07. Andarilho Noturno
08. Paranoia
09. O Abutre
10. A Lenda do Velho Barnabe
******************************
Total playing time: 1:01:05



Extended info
Jayme Danko ( Guitarra e Vocais )
Gustavo Fassina ( Guitarra )
Flavio Salim ( Teclados )
Eduardo Milani ( Baixo )
Daniel Werneck ( Bateria )



Technical info
(IMG:http://metalarea.org/images/spectrogram/2020_Jan/4c859a68475e2d3d9b28425848ee3c60.png)
Input File: 03 - Condessa de Sangue.mp3
Channels : 2
Sample Rate : 44100
Precision : 16-bit
Duration : 00:04:42.43 = 12455295 samples = 21182.5 CDDA sectors
File Size : 11.3M
Bit Rate : 320k
Sample Encoding: MPEG audio (layer I, II or III)
Comments :
Title=Condessa de Sangue
Artist=Cova Rasa
Album=Cruzando Infernos
Tracknumber=3
Year=2020
Genre=Heavy Metal
Discnumber=1



Register


Go to the top of the page
  Insert nick Quick quote
+Quote Post

Reply to this topicStart new topic
1 User(s) are reading this topic (1 Guests and 0 Anonymous Users)
0 Members:

 



- Lo-Fi Version Support form
Copyrights and abuse reports form
Time is now: 23rd January 2020 - 03:08:21