Welcome Guest ( Log In | Register )

> Hollow Seasons - As Misery Fades [ep] (2020), Progressive/Melodic Death Metal
post Jan 15 2020, 07:44:56
Post #1

Правь статус, ####!111
**************
Group: Металариец
Posts: 23,124
Releases: 16120
From: Г.Харьков
On Forums: 8 years 4 months
Thanks: 299752 time(s)
Unknown


(IMG:http://metalarea.org/images/audiocovers/2020_Jan/acov_tid332653_thumb.jpg)

*Artist: Hollow Seasons
*Album: As Misery Fades [ep]
*Year: 2020
*Genre: Progressive/Melodic Death Metal
*Country: Norway (IMG:http://metalarea.org/forum/style_images/flags/Norway.png)
*Format: mp3@CBR320kbps
*Size: 70MB

Tracklist:
1. Chains of Fate 05:05
2. Departure 05:45
3. I Will Not Follow 05:55
4. Of Darkness and Silence 06:35
5. The Struggle Within 06:58
******************************
Total playing time: 30:18




Extended info
Martin Aronsen Bass
William Reithe Drums
Bill Written Guitars, Vocals, Lyrics


Technical info
(IMG:http://metalarea.org/images/spectrogram/2020_Jan/6ba5523b8aee782ca7a6fe93ab95aafa.png)
Input File: 03 - I Will Not Follow.mp3
Channels : 2
Sample Rate : 44100
Precision : 16-bit
Duration : 00:05:55.86 = 15693514 samples = 26689.6 CDDA sectors
File Size : 14.4M
Bit Rate : 323k
Sample Encoding: MPEG audio (layer I, II or III)
Comments :
Title=I Will Not Follow
Artist=Hollow Seasons
Album=As Misery Fades
Tracknumber=3
Year=2020-01-15
Genre=Metal
Discnumber=1



Register


Go to the top of the page
  Insert nick Quick quote
+Quote Post
 
Start new topic
Replies (1 - 1)
post Jan 15 2020, 18:13:12
Post #2

Три Литра
***
Group: Завсегдатай
Posts: 225
Releases: 0
From: Минск
On Forums: 9 years 4 months
Thanks: 143 time(s)
Russian Federation


Прогрессивно, мелодично (IMG:style_emoticons/default/20.gif)
Go to the top of the page
  Insert nick Quick quote
+Quote Post

Reply to this topicStart new topic
1 User(s) are reading this topic (1 Guests and 0 Anonymous Users)
0 Members:

 



- Lo-Fi Version Support form
Copyrights and abuse reports form
Time is now: 18th September 2020 - 13:58:56