Welcome Guest ( Log In | Register )

> Releases Upload / Добавление релизов

Добавить релиз тут / Click here to add release
Рекомендованные обменники / Recommended file shares

 
Reply to this topicStart new topic
> Vulgarite - Fear Not The Dark Nor The Sun's Return [ep] (2020), Black/Doom Metal
post Jan 15 2020, 08:55:18
Post #1

Правь статус, ####!111
**************
Group: Металариец
Posts: 20,300
Releases: 13836
From: Г.Харьков
On Forums: 7 years 8 months
Thanks: 242077 time(s)
Unknown


(IMG:http://metalarea.org/images/audiocovers/2020_Jan/acov_tid332654_thumb.jpg)

*Artist: Vulgarite
*Album: Fear Not The Dark Nor The Sun's Return [ep]
*Year: 2020
*Genre: Black/Doom Metal
*Country: United States (IMG:http://metalarea.org/forum/style_images/flags/United%20States.png)
*Format: mp3@CBR320kbps
*Size: 55MB

Tracklist:
1. What Curse Comes This Way 06:07
2. His Words Are a Void 06:22
3. They Will Fall 06:34
4. A Decade, A Prophecy 04:55
******************************
Total playing time: 23:58




Extended info


Technical info
(IMG:http://metalarea.org/images/spectrogram/2020_Jan/f7a1ae069fd51d251e55d5171190450f.png)
Input File: 02 - His Words Are a Void.mp3
Channels : 2
Sample Rate : 44100
Precision : 16-bit
Duration : 00:06:22.80 = 16881304 samples = 28709.7 CDDA sectors
File Size : 15.4M
Bit Rate : 322k
Sample Encoding: MPEG audio (layer I, II or III)
Comments :
Title=His Words Are a Void
Artist=Vulgarite
Album=Fear Not the Dark nor the Sun's Return
Tracknumber=2
Year=2020-01-06
Genre=Metal
Discnumber=1



Register


Go to the top of the page
  Insert nick Quick quote
+Quote Post

Reply to this topicStart new topic
1 User(s) are reading this topic (1 Guests and 0 Anonymous Users)
0 Members:

 



- Lo-Fi Version Support form
Copyrights and abuse reports form
Time is now: 23rd January 2020 - 03:24:16