Welcome Guest ( Log In | Register )

> Releases Upload / Добавление релизов

Добавить релиз тут / Click here to add release
Рекомендованные обменники / Recommended file shares

 
Reply to this topicStart new topic
> Denizen - High Winds Preacher (2019), Stoner Metal/Rock
post Jan 15 2020, 09:11:44
Post #1

Правь статус, ####!111
**************
Group: Металариец
Posts: 20,300
Releases: 13836
From: Г.Харьков
On Forums: 7 years 8 months
Thanks: 242075 time(s)
Unknown


(IMG:http://metalarea.org/images/audiocovers/2020_Jan/acov_tid332655_thumb.jpg)

*Artist: Denizen
*Album: High Winds Preacher
*Year: 2019
*Genre: Stoner Metal/Rock
*Country: France (IMG:http://metalarea.org/forum/style_images/flags/France.png)
*Format: mp3@CBR320kbps
*Size: 108MB

Tracklist:
1. Shadow Dancer 03:33
2. Among The Trees 04:54
3. Ears Wide Opened 04:36
4. Chasing The Guru 05:06
5. The Beast 05:16
6. Mandrake Is Everywhere 04:23
7. White Flamingo 04:10
8. Deaf Taint 05:16
9. Punch Out 02:26
10. Tomahawk 06:43
******************************
Total playing time: 46:23




Extended info
Fabien Aletto - Vocals
Yann Chinette - Guitars
Andréas Goumy - Drums
Colin Trognée - Bass


Technical info
(IMG:http://metalarea.org/images/spectrogram/2020_Jan/239678634a7c7c1b4fa6a6b675d81188.png)
Input File: 04 - Chasing the Guru.mp3
Channels : 2
Sample Rate : 44100
Precision : 16-bit
Duration : 00:05:06.12 = 13500024 samples = 22959.2 CDDA sectors
File Size : 12.5M
Bit Rate : 326k
Sample Encoding: MPEG audio (layer I, II or III)
Comments :
Title=Chasing the Guru
Artist=Denizen
Album=High Winds Preacher
Tracknumber=4
Year=2019-11-29
Genre=Metal
Discnumber=1



Register


Go to the top of the page
  Insert nick Quick quote
+Quote Post

Reply to this topicStart new topic
1 User(s) are reading this topic (1 Guests and 0 Anonymous Users)
0 Members:

 



- Lo-Fi Version Support form
Copyrights and abuse reports form
Time is now: 23rd January 2020 - 02:35:48