Welcome Guest ( Log In | Register )

> Releases Upload / Добавление релизов

Добавить релиз тут / Click here to add release
Рекомендованные обменники / Recommended file shares

> Cradle Of Filth - Live At Dynamo Open Air 1997 [live] (2019), Symphonic Black Metal (D)
post Jan 15 2020, 10:19:05
Post #1

неделимое
******
Group: Металариец
Posts: 543
Releases: 24
On Forums: 8 years 4 months
Thanks: 665 time(s)
Russian Federation


(IMG:http://metalarea.org/images/audiocovers/2020_Jan/acov_tid332657_thumb.jpg)

*Artist: Cradle Of Filth
*Album: Live At Dynamo Open Air 1997 [live]
*Year: 2019
*Genre: Symphonic Black Metal
*Country: United Kingdom (IMG:http://metalarea.org/forum/style_images/flags/United%20Kingdom.png)
*Format: mp3@CBR320kbps
*Size: 87MB

Tracklist:
1. To Eve The Art Of Witchcraft 07:03
2. The Forest Whispers My Name 04:49
3. Dusk And Her Embrace 06:10
4. Malice Through The Looking Glass 05:18
5. Haunted Shores 07:19
6. The Black Goddess Rises 07:30
******************************
Total playing time: 38:09

(IMG:http://metalarea.org/images/youtube.png)

Technical info
(IMG:http://metalarea.org/images/spectrogram/2020_Jan/92b44c3a28a6ecdef6a992e4c96114ca.png)
Input File: 02 - The Forest Whispers My Name.mp3
Channels : 2
Sample Rate : 44100
Precision : 16-bit
Duration : 00:04:49.27 = 12756763 samples = 21695.2 CDDA sectors
File Size : 11.6M
Bit Rate : 320k
Sample Encoding: MPEG audio (layer I, II or III)



Register


Go to the top of the page
  Insert nick Quick quote
+Quote Post
 
Start new topic
Replies (1 - 6)
post Jan 15 2020, 19:04:56
Post #2

Шесть Литров
******
Group: Металариец
Posts: 574
Releases: 2
On Forums: 9 years 4 months
Thanks: 237 time(s)
Belarus


фигасе трэклист!!!
Go to the top of the page
  Insert nick Quick quote
+Quote Post
post Jan 16 2020, 06:47:49
Post #3

Котеги! Нравяцо котеги?
**************
Group: Металариец
Posts: 6,119
Releases: 0
From: Терра Инкогнита
On Forums: 9 years 8 months
Thanks: 2594 time(s)
Russian Federation


ЦИТАТА(Battaleon @ 15th January 2020 - 21:04:56) *
фигасе трэклист!!!

Ожидаемо для 97го года, разве нет?
Go to the top of the page
  Insert nick Quick quote
+Quote Post
post Jan 16 2020, 06:52:01
Post #4

Ледоруб
**************
Group: Металариец
Posts: 24,064
Releases: 0
From: Санкт-Петербург
On Forums: 10 years 5 months
Thanks: 8199 time(s)
Russian Federation


Запись хоть подретушировали? Иначе зачем это всё (про бабки не надо, на таком много не срубишь)?
Go to the top of the page
  Insert nick Quick quote
+Quote Post
post Jan 16 2020, 07:16:13
Post #5

Правь статус, ####!111
**************
Group: Металариец
Posts: 45,107
Releases: 695
On Forums: 10 years 8 months
Thanks: 36745 time(s)
Russian Federation


ЦИТАТА(6666666 @ Jan 16 2020, 08:52:01) *
Запись хоть подретушировали? Иначе зачем это всё (про бабки не надо, на таком много не срубишь)?


Это целая серия подобных канцертников от разных групп. В ней уже пантера вышла, еще кто то, теперь вот и до сих дошла очередь.
Go to the top of the page
  Insert nick Quick quote
+Quote Post
post Jan 16 2020, 07:20:55
Post #6

Ледоруб
**************
Group: Металариец
Posts: 24,064
Releases: 0
From: Санкт-Петербург
On Forums: 10 years 5 months
Thanks: 8199 time(s)
Russian Federation


ЦИТАТА(vosmidesijatye @ 16th January 2020 - 09:16:13) *
Это целая серия подобных канцертников от разных групп. В ней уже пантера вышла, еще кто то, теперь вот и до сих дошла очередь.

На мой вопрос это никак не ответило.
Go to the top of the page
  Insert nick Quick quote
+Quote Post
post Jan 16 2020, 10:52:23
Post #7

Шесть Литров
******
Group: Металариец
Posts: 574
Releases: 2
On Forums: 9 years 4 months
Thanks: 237 time(s)
Belarus


ЦИТАТА(Aresson @ 16th January 2020 - 06:47:49) *
Ожидаемо для 97го года, разве нет?

Я уже отвык видеть такой набор в концертниках крэдлов)) Dusk And Her Embrace форэва.любимый альбом.

upd звук для концертника норм.всё слушается и всё на месте.


Thanks:
(1) Occultas,
Go to the top of the page
  Insert nick Quick quote
+Quote Post

Reply to this topicStart new topic
1 User(s) are reading this topic (1 Guests and 0 Anonymous Users)
0 Members:

 



- Lo-Fi Version Support form
Copyrights and abuse reports form
Time is now: 19th February 2020 - 11:14:49