Welcome Guest ( Log In | Register )

> Releases Upload / Добавление релизов

Добавить релиз тут / Click here to add release
Рекомендованные обменники / Recommended file shares

> Vader - Litania [single] (2019), Death/Thrash Metal (D)
post Jan 15 2020, 10:29:47
Post #1

неделимое
******
Group: Металариец
Posts: 510
Releases: 21
On Forums: 8 years 3 months
Thanks: 551 time(s)
Russian Federation


(IMG:http://metalarea.org/images/audiocovers/2020_Jan/acov_tid332658_thumb.jpeg)

*Artist: Vader
*Album: Litania [single]
*Year: 2019
*Genre: Death/Thrash Metal
*Country: Poland (IMG:http://metalarea.org/forum/style_images/flags/Poland.png)
*Format: mp3@CBR320kbps
*Size: 15MB

Tracklist:
1. Litania 03:11
2. Wings (Live) 03:15
******************************
Total playing time: 6:26

Technical info
(IMG:http://metalarea.org/images/spectrogram/2020_Jan/0b627b45fd7ad0293adcb8a07fbaf118.png)
Input File: 01 - Litania.mp3
Channels : 2
Sample Rate : 44100
Precision : 16-bit
Duration : 00:03:11.61 = 8450045 samples = 14370.8 CDDA sectors
File Size : 7.66M
Bit Rate : 320k
Sample Encoding: MPEG audio (layer I, II or III)



Register


Go to the top of the page
  Insert nick Quick quote
+Quote Post
 
Start new topic
Replies (1 - 2)
post Jan 15 2020, 20:47:24
Post #2

Четыре Литра
****
Group: Металариец
Posts: 390
Releases: 0
From: Город Герой Москва!
On Forums: 13 years 4 months
Thanks: 16 time(s)
Russian Federation


И тишина....
Go to the top of the page
  Insert nick Quick quote
+Quote Post
post Jan 15 2020, 21:22:44
Post #3

Правь статус, ####!111
**************
Group: Металариец
Posts: 2,253
Releases: 0
On Forums: 4 years 8 months
Thanks: 2576 time(s)
Russian Federation


Зеркало
Register


Litania
Litany из одноимённого альбома 2000г.
Мне одному показалось что группа начинает повторяться ? (IMG:style_emoticons/default/1488.gif)
Go to the top of the page
  Insert nick Quick quote
+Quote Post

Reply to this topicStart new topic
1 User(s) are reading this topic (1 Guests and 0 Anonymous Users)
0 Members:

 



- Lo-Fi Version Support form
Copyrights and abuse reports form
Time is now: 22nd January 2020 - 00:54:04