Welcome Guest ( Log In | Register )

> Sinoath - Anamnesis (2018), Doom Metal
post Jan 15 2020, 11:15:03
Post #1

Правь статус, ####!111
**************
Group: Металариец
Posts: 23,204
Releases: 16189
From: Г.Харьков
On Forums: 8 years 4 months
Thanks: 301497 time(s)
Unknown


(IMG:http://metalarea.org/images/audiocovers/2020_Jan/acov_tid332659_thumb.jpg)

*Artist: Sinoath
*Album: Anamnesis
*Year: 2018
*Genre: Doom Metal
*Country: Italy (IMG:http://metalarea.org/forum/style_images/flags/Italy.png)
*Format: mp3@CBR320kbps
*Size: 112MB

Tracklist:
1. Anamnesis 07:38
2. Saturnalia 06:54
3. A Journey Unknown 05:39
4. Join Us 06:18
5. Brainstorming 05:28
6. Hyperuranius 03:01
7. The Absolute Nowhere 10:36
8. Arcadia 03:52
******************************
Total playing time: 49:26




Extended info
Fabio Lipera Guitars
Salvatore Fichera Drums
Alessio Zappalá Bass
Francesco Cucinotta Vocals, Guitars, Keyboards


Technical info
(IMG:http://metalarea.org/images/spectrogram/2020_Jan/f4dfad6066ffa80596e4a4a62d166617.png)
Input File: 04 - Join Us.mp3
Channels : 2
Sample Rate : 44100
Precision : 16-bit
Duration : 00:06:20.70 = 16788650 samples = 28552.1 CDDA sectors
File Size : 15.2M
Bit Rate : 320k
Sample Encoding: MPEG audio (layer I, II or III)
Comments :
Title=Join Us
Artist=Sinoath
Album=Anamnesis
Tracknumber=4
Year=2018
Genre=Metal



Register


Go to the top of the page
  Insert nick Quick quote
+Quote Post
 
Start new topic
Replies (1 - 2)
post Jan 15 2020, 19:26:26
Post #2

Маньяк
**********
Group: Металариец
Posts: 1,190
Releases: 37
From: великий город Питер
On Forums: 14 years 9 months
Thanks: 2029 time(s)
Russian Federation


может когда раньше они и играли Black/Death/Doom, хз, но здесь только дум с уклоном в стоунер и ничего больше
Go to the top of the page
  Insert nick Quick quote
+Quote Post
post Jan 15 2020, 20:03:47
Post #3

Семь Литров
*******
Group: Металариец
Posts: 758
Releases: 8
On Forums: 9 years 2 months
Thanks: 567 time(s)
Russian Federation


ЦИТАТА(AlexCrazy @ Jan 15 2020, 19:26:26) *
может когда раньше они и играли Black/Death/Doom, хз, но здесь только дум с уклоном в стоунер и ничего больше

На любом предыдущем релизе. Здесь, разумеется, нет ни блэка, ни дэта. Из этого релиза блэк такой же, как из каких-нибудь Death SS.


Thanks:
Go to the top of the page
  Insert nick Quick quote
+Quote Post

Reply to this topicStart new topic
1 User(s) are reading this topic (1 Guests and 0 Anonymous Users)
0 Members:

 



- Lo-Fi Version Support form
Copyrights and abuse reports form
Time is now: 24th September 2020 - 05:35:15