Welcome Guest ( Log In | Register )

> Releases Upload / Добавление релизов

Добавить релиз тут / Click here to add release
Рекомендованные обменники / Recommended file shares

 
Reply to this topicStart new topic
> Wurmlord - Aeons Of Darkness [ep] (2019), Melodic Death/Doom Metal
post Jan 15 2020, 12:22:53
Post #1

Правь статус, ####!111
**************
Group: Металариец
Posts: 6,116
Releases: 5638
From: Lithuania
On Forums: 13 years 3 months
Thanks: 41480 time(s)
Lithuania


(IMG:https://metalarea.org/images/audiocovers/2020_Jan/acov_tid332660_thumb.jpg)

*Artist: Wurmlord
*Album: Aeons Of Darkness [ep]
*Year: 2019
*Genre: Melodic Death/Doom Metal
*Country: United Kingdom (IMG:https://metalarea.org/forum/style_images/flags/United%20Kingdom.png)
*Format: mp3@CBR320kbps
*Size: 58MB

Tracklist:
1. A Void Most Terrible 02:05
2. Underworld Dreams 04:48
3. Sisyphean 06:32
4. The Primordial Truth 05:03
5. Black Hearts 06:26
******************************
Total playing time: 24:54


(IMG:https://metalarea.org/images/youtube.png)

Technical info
(IMG:https://metalarea.org/images/spectrogram/2020_Jan/478acb4b122f064d14f0d48d2784caf9.png)
Input File: 02 Underworld Dreams.mp3
Channels : 2
Sample Rate : 44100
Precision : 16-bit
Duration : 00:04:48.31 = 12714295 samples = 21623 CDDA sectors
File Size : 11.7M
Bit Rate : 324k
Sample Encoding: MPEG audio (layer I, II or III)
Comments :
Title=Underworld Dreams
Artist=Wurmlord
Album=Aeons Of Darkness (EP)
Tracknumber=2
Year=2019



Register


Go to the top of the page
  Insert nick Quick quote
+Quote Post

Reply to this topicStart new topic
2 User(s) are reading this topic (2 Guests and 0 Anonymous Users)
0 Members:

 



- Lo-Fi Version Support form
Copyrights and abuse reports form
Time is now: 23rd January 2020 - 02:35:30