Welcome Guest ( Log In | Register )

> Releases Upload / Добавление релизов

Добавить релиз тут / Click here to add release
Рекомендованные обменники / Recommended file shares

> Adrian Tabacaru - Lucifer: A Rock Opera (2020), Progressive Metal/Rock/Rock Opera
post Jan 15 2020, 14:40:45
Post #1

Герберт Уэст
**************
Group: Металариец
Posts: 2,264
Releases: 71
From: Поморье
On Forums: 10 years 7 months
Thanks: 4744 time(s)
Russian Federation


(IMG:http://metalarea.org/images/audiocovers/2020_Jan/acov_tid332664_thumb.jpg)

*Artist: Adrian Tabacaru
*Album: Lucifer: A Rock Opera
*Year: 2020
*Genre: Progressive Metal/Rock/Rock Opera
*Country: Romania (IMG:http://metalarea.org/forum/style_images/flags/Romania.png)
*Format: mp3@CBR320kbps
*Size: 103MB

Tracklist:
01. Exordium
02. Lucifer
03. Longing for the Star
04. Intermezzo
05. Beyond Infinity
06. The Long Way Home
07. Asking the Void
08. Antithesis
09. A Valediction - Forbidding Mourning
10. Conclusio
11. Celestial Funeral
12. Singularity
******************************
Total playing time: 45:11

Preview 1

Extended info
Line Up:
Adrian Tabacaru - drums, composed
Eugen Brudaru in the role of Hiperion
Maria Hojda in the role of Catalina
Razvan Krivach in the role of Catalin
Iustinian Zetea - bass (vocal style)
Dominic Cristea - baritone
Laura Mihaila - vocals
Dragos Cretu - vocals
Andrei Ionescu - vocals
Andrew Pleavin - narrator
Olimpia Malai - angels
Raluca Sratulat - violin and viola
Andreea Timiras - cello
Adrian Buciu - flute
Sebastian Burneci - trompet
Constantin Urziceanu - clarinet
Sergiu Dan Feier - oboe
Petre Iftimie - guitar
Andrei Popa - guitar
Alexei Nichiforof - bass


Technical info
(IMG:http://metalarea.org/images/spectrogram/2020_Jan/f0c960e7cb78b2e8dd37d8de52ebe30c.png)
Input File: 02 - Lucifer.mp3
Channels : 2
Sample Rate : 44100
Precision : 16-bit
Duration : 00:05:57.22 = 15753446 samples = 26791.6 CDDA sectors
File Size : 14.3M
Bit Rate : 320k
Sample Encoding: MPEG audio (layer I, II or III)
Comments :
Title=Lucifer
Artist=Adrian Tabacaru
Album=Lucifer - A Rock Opera
Tracknumber=2
Year=2020
Genre=Rock
Discnumber=1



Register


Go to the top of the page
  Insert nick Quick quote
+Quote Post
 
Start new topic
Replies (1 - 5)
post Jan 15 2020, 16:58:45
Post #2

Герберт Уэст
**************
Group: Металариец
Posts: 2,264
Releases: 71
From: Поморье
On Forums: 10 years 7 months
Thanks: 4744 time(s)
Russian Federation


Честно говоря, неожиданно кайфанул с данной пластинки - не одними Hteththemeth красна земля мадьярская в прогрессиве. (IMG:style_emoticons/default/headcrab.png) (IMG:style_emoticons/default/headcrab.png) (IMG:style_emoticons/default/headcrab.png)
Go to the top of the page
  Insert nick Quick quote
+Quote Post
post Jan 15 2020, 19:12:52
Post #3

hearer & reader
**************
Group: Металариец
Posts: 8,288
Releases: 113
From: Moscow
On Forums: 12 years 4 months
Thanks: 7884 time(s)
Russian Federation


ЦИТАТА(paganheart @ Jan 15 2020, 18:58:45) *
Честно говоря, неожиданно кайфанул с данной пластинки - не одними Hteththemeth красна земля мадьярская в прогрессиве. (IMG:style_emoticons/default/headcrab.png) (IMG:style_emoticons/default/headcrab.png) (IMG:style_emoticons/default/headcrab.png)

Мадьяры - это венгры (IMG:style_emoticons/default/bye.gif)

https://music.yandex.ru/album/9554396
Проект клавише-барабанера Taine. Интересно..


Thanks:
Go to the top of the page
  Insert nick Quick quote
+Quote Post
post Jan 15 2020, 19:29:43
Post #4

Герберт Уэст
**************
Group: Металариец
Posts: 2,264
Releases: 71
From: Поморье
On Forums: 10 years 7 months
Thanks: 4744 time(s)
Russian Federation


ЦИТАТА(AHBAnep @ Jan 15 2020, 21:12:52) *
Мадьяры - это венгры (IMG:style_emoticons/default/bye.gif)

https://music.yandex.ru/album/9554396
Проект клавише-барабанера Taine. Интересно..

Точно! (IMG:style_emoticons/default/1488.gif) Дракулята короче.
ЗЫ
ЦИТАТА
Одно слово — румын.
— Так он болгарин.
— Да? Какая разница?(ц)
Go to the top of the page
  Insert nick Quick quote
+Quote Post
post Jan 16 2020, 08:01:03
Post #5

Два Литра
**
Group: Завсегдатай
Posts: 182
Releases: 0
On Forums: 8 months 2 weeks
Thanks: 83 time(s)
Ukraine


В Румынии проживает около 1,5 миллиона этнических венгров, больше всего (около 20%) в Трансильвании, бывшей территориии Австро-Венгрии.
Go to the top of the page
  Insert nick Quick quote
+Quote Post
post Today, 17:38:13
Post #6

Герберт Уэст
**************
Group: Металариец
Posts: 2,264
Releases: 71
From: Поморье
On Forums: 10 years 7 months
Thanks: 4744 time(s)
Russian Federation



Альбом целиком в виде анимированного действа.
Ну и ссылка на поэму, которая легла в основу оперы. Luciafărul
Go to the top of the page
  Insert nick Quick quote
+Quote Post

Reply to this topicStart new topic
2 User(s) are reading this topic (2 Guests and 0 Anonymous Users)
0 Members:

 



- Lo-Fi Version Support form
Copyrights and abuse reports form
Time is now: 21st January 2020 - 23:44:40