Welcome Guest ( Log In | Register )

 
Reply to this topicStart new topic
> Necro Polaris - Nightmarish Behavior Chain (2011), Melodic Death Metal
post Jan 15 2020, 15:08:52
Post #1

Правь статус, ####!111
**************
Group: Металариец
Posts: 6,526
Releases: 6012
From: Lithuania
On Forums: 13 years 10 months
Thanks: 45366 time(s)
Lithuania


(IMG:https://metalarea.org/images/audiocovers/2020_Jan/acov_tid332665_thumb.jpg)

*Artist: Necro Polaris
*Album: Nightmarish Behavior Chain
*Year: 2011
*Genre: Melodic Death Metal
*Country: Japan (IMG:https://metalarea.org/forum/style_images/flags/Japan.png)
*Format: mp3@CBR320kbps
*Size: 96MB

Tracklist:
1. Intro 01:14
2. Shadow's Town 04:28
3. Black and White 04:32
4. Lost Companions 03:21
5. Cage 03:33
6. Gray Sky 03:54
7. Codependence 04:42
8. Mammonism 03:11
9. Face to Face 04:20
10. Reality 03:45
11. Return to the Shadow 05:03
******************************
Total playing time: 42:03

(IMG:https://metalarea.org/images/youtube.png)
Website

Technical info
(IMG:https://metalarea.org/images/spectrogram/2020_Jan/cb0350ca25f968ce6d360d8b8a8e613c.png)
Input File: 02 - Shadow\'s Town.mp3
Channels : 2
Sample Rate : 44100
Precision : 16-bit
Duration : 00:04:28.09 = 11822593 samples = 20106.5 CDDA sectors
File Size : 10.7M
Bit Rate : 320k
Sample Encoding: MPEG audio (layer I, II or III)
Comments :
Title=Shadow's Town
Artist=Necro Polaris
Album=Nightmarish Behavior Chain
Tracknumber=2/11
Year=2011
Genre=9



Register


Go to the top of the page
  Insert nick Quick quote
+Quote Post

Reply to this topicStart new topic
1 User(s) are reading this topic (1 Guests and 0 Anonymous Users)
0 Members:

 



- Lo-Fi Version Support form
Copyrights and abuse reports form
Time is now: 9th August 2020 - 18:10:46