Welcome Guest ( Log In | Register )

> Releases Upload / Добавление релизов

Добавить релиз тут / Click here to add release
Рекомендованные обменники / Recommended file shares

> Rotten - Rotten [ep] (2019), Old School Death Metal
post Jan 15 2020, 16:39:26
Post #1

Правь статус, ####!111
**************
Group: Металариец
Posts: 20,300
Releases: 13836
From: Г.Харьков
On Forums: 7 years 8 months
Thanks: 242077 time(s)
Unknown


(IMG:http://metalarea.org/images/audiocovers/2020_Jan/acov_tid332666_thumb.jpg)

*Artist: Rotten
*Album: Rotten [ep]
*Year: 2019
*Genre: Old School Death Metal
*Country: France (IMG:http://metalarea.org/forum/style_images/flags/France.png)
*Format: mp3@CBR320kbps
*Size: 85MB

Tracklist:
1. Viscera Nebula 06:04
2. Umbilical Cord of the Purulent Planet 04:30
3. Stellar Echoes From Decomposed Life 06:44
4. Submission To The Rotten Castle 07:35
5. Floating Among The Dead Celestial Bodies 06:48
6. Til Death (OBITUARY Cover) 04:04
******************************
Total playing time: 35:45




Extended info
Djé Bass (2016-present)
See also: ex-Deep Vein
Cyril Drums (2016-present)
See also: Trepanator, ex-Bloodtears, ex-Deep Vein, ex-The Bottle Doom Lazy Band (live)
Guillaume Guitars (2016-present)
See also: Baptized in Vaginal Liquid, Embryopathia, Pulmonary Fibrosis, The Bottle Doom Lazy Band, ex-Gorified, Corporal Abuse, ex-Obtenebratum, ex-Mixomatosis
Ben Vocals (2016-present)
See also: The Bottle Doom Lazy Band, ex-Evil Omen, ex-The Dead Is Tired When the Morning Comes, ex-Sypnosys, ex-Barfight, ex-Bleakness, ex-Exceed, ex-Nirneath Arnoediad


Technical info
(IMG:http://metalarea.org/images/spectrogram/2020_Jan/172128cfd260707d13feb3911d4d00ec.png)
Input File: 03. Stellar Echoes from Decomposed Life.mp3
Channels : 2
Sample Rate : 44100
Precision : 16-bit
Duration : 00:06:45.00 = 17860544 samples = 30375.1 CDDA sectors
File Size : 16.7M
Bit Rate : 329k
Sample Encoding: MPEG audio (layer I, II or III)
Comments :
Title=Stellar Echoes from Decomposed Life
Artist=Rotten
Album=Rotten (320)
Tracknumber=03
Year=2019
Genre=Metal



Register


Go to the top of the page
  Insert nick Quick quote
+Quote Post
 
Start new topic
Replies (1 - 3)
post Jan 15 2020, 17:25:40
Post #2

Правь статус, ####!111
**************
Group: Металариец
Posts: 20,300
Releases: 13836
From: Г.Харьков
On Forums: 7 years 8 months
Thanks: 242077 time(s)
Unknown


FLAC (Tracks) 282 mb
Register


Thanks:
Go to the top of the page
  Insert nick Quick quote
+Quote Post
post Jan 15 2020, 20:04:50
Post #3

hearer & reader
**************
Group: Металариец
Posts: 8,288
Releases: 113
From: Moscow
On Forums: 12 years 4 months
Thanks: 7885 time(s)
Russian Federation


А ведь, звук грайндовый. Такой тягучий десграйнд. Аж ушам больно.
Go to the top of the page
  Insert nick Quick quote
+Quote Post
post Jan 16 2020, 14:54:34
Post #4

Пять Литров
*****
Group: Металариец
Posts: 464
Releases: 0
From: Нижний Новгород
On Forums: 13 years 5 months
Thanks: 180 time(s)
Russian Federation


Уши-то болят из-за дисторшна, которым весь бас и верха испоганили, а материал хорош.


Thanks:
(1) AHBAnep,
Go to the top of the page
  Insert nick Quick quote
+Quote Post

Reply to this topicStart new topic
2 User(s) are reading this topic (2 Guests and 0 Anonymous Users)
0 Members:

 



- Lo-Fi Version Support form
Copyrights and abuse reports form
Time is now: 23rd January 2020 - 02:51:34