Welcome Guest ( Log In | Register )

> Releases Upload / Добавление релизов

Добавить релиз тут / Click here to add release
Рекомендованные обменники / Recommended file shares

> Morgue 22 - Horror Metal [ep] (2019), Old School Death/Thrash Metal
post Jan 15 2020, 17:23:31
Post #1

Правь статус, ####!111
**************
Group: Металариец
Posts: 20,731
Releases: 14156
From: Г.Харьков
On Forums: 7 years 9 months
Thanks: 250217 time(s)
Unknown


(IMG:http://metalarea.org/images/audiocovers/2020_Jan/acov_tid332667_thumb.jpg)

*Artist: Morgue 22
*Album: Horror Metal [ep]
*Year: 2019
*Genre: Old School Death/Thrash Metal
*Country: United States (IMG:http://metalarea.org/forum/style_images/flags/United%20States.png)
*Format: mp3@CBR320kbps
*Size: 45MB

Tracklist:
1. World in a Grave 05:05
2. Rotted and Mangled 05:44
3. Mutated Children 03:34
4. Demented Damnation 03:50
******************************
Total playing time: 18:13




Extended info
Рип с бандкампа,есть FLAC
Sid Plague - Vocals & Lyrics
Matt Cox - Bass & Drums
Evan Cox - Guitar and Production


Technical info
(IMG:http://metalarea.org/images/spectrogram/2020_Jan/c499aebc7dafc332debf9886542094b6.png)
Input File: 02 Rotted And Mangled.mp3
Channels : 2
Sample Rate : 44100
Precision : 16-bit
Duration : 00:05:44.99 = 15214147 samples = 25874.4 CDDA sectors
File Size : 14.0M
Bit Rate : 325k
Sample Encoding: MPEG audio (layer I, II or III)
Comments :
Title=Rotted And Mangled
Artist=Morgue 22
Album=Horror Metal
Tracknumber=2
Year=2019



Register


Go to the top of the page
  Insert nick Quick quote
+Quote Post
 
Start new topic
Replies (1 - 1)
post Jan 15 2020, 19:43:55
Post #2

Правь статус, ####!111
**************
Group: Металариец
Posts: 20,731
Releases: 14156
From: Г.Харьков
On Forums: 7 years 9 months
Thanks: 250217 time(s)
Unknown


FLAC (Tracks) 121 mb
Register


Thanks:
(1) Olethros,
Go to the top of the page
  Insert nick Quick quote
+Quote Post

Reply to this topicStart new topic
1 User(s) are reading this topic (1 Guests and 0 Anonymous Users)
0 Members:

 



- Lo-Fi Version Support form
Copyrights and abuse reports form
Time is now: 29th February 2020 - 05:01:48