Welcome Guest ( Log In | Register )

> Detrimentum - Aapenbaringen (2020), Black Metal (D4)
post Jan 15 2020, 17:52:53
Post #1

Правь статус, ####!111
**************
Group: Металариец
Posts: 22,292
Releases: 15430
From: Г.Харьков
On Forums: 8 years 1 month
Thanks: 282375 time(s)
Unknown


(IMG:http://metalarea.org/images/audiocovers/2020_Jan/acov_tid332668_thumb.jpg)

*Artist: Detrimentum
*Album: Aapenbaringen
*Year: 2020
*Genre: Black Metal
*Country: Norway (IMG:http://metalarea.org/forum/style_images/flags/Norway.png)
*Format: mp3@CBR320kbps
*Size: 71MB

Tracklist:
01. Aapenbaringen
02. Inn i skyggenes dal
03. Angeli interitus
04. Bortenfor alt lys
05. Hat
06. Hymne til den fallne
07. Trollskog
******************************
Total playing time: 29:34




Extended info
Tor Erik Andersen All instruments, Vocals (2007-2019)
See also: ex-Inherit, Angeli Mortem, ex-Harm, ex-Opus Forgotten
Alexandra Augestad Andersen Vocals (clean) (2016-2019)
See also: Angeli Mortem



Technical info
(IMG:http://metalarea.org/images/spectrogram/2020_Jan/c5611e99459d81a271666da142f1d417.png)
Input File: 04 Bortenfor alt lys.mp3
Channels : 2
Sample Rate : 44100
Precision : 16-bit
Duration : 00:04:08.10 = 10941254 samples = 18607.6 CDDA sectors
File Size : 10.5M
Bit Rate : 338k
Sample Encoding: MPEG audio (layer I, II or III)
Comments :
Title=Bortenfor alt lys
Artist=Detrimentum, Alexandra Anderse
Album=Aapenbaringen
Tracknumber=4/7
Year=2020



Register


Go to the top of the page
  Insert nick Quick quote
+Quote Post
 
Start new topic
Replies (1 - 3)
post Jan 15 2020, 19:33:52
Post #2

melofags sniper
**************
Group: Металариец
Posts: 5,162
Releases: 0
On Forums: 12 years 4 months
Thanks: 4031 time(s)
Unknown


Interesting shitty drumbox.


Thanks:
(1) biroutios,
Go to the top of the page
  Insert nick Quick quote
+Quote Post
post Jan 17 2020, 07:07:48
Post #3

De Mysteriis Dom Sathanas
**************
Group: Металариец
Posts: 3,991
Releases: 63
From: Doom
On Forums: 11 years 11 months
Thanks: 3395 time(s)
Russian Federation


Гавне*о из Норвегии с электронными ударными, не стоит внимания


Thanks:
Go to the top of the page
  Insert nick Quick quote
+Quote Post
post Jun 30 2020, 10:52:31
Post #4

Full-of-Hate
**************
Group: Металариец
Posts: 3,715
Releases: 0
From: Moscow
On Forums: 11 years 1 week
Thanks: 3518 time(s)
Russian Federation


Отбросы с bandcamp
Go to the top of the page
  Insert nick Quick quote
+Quote Post

Reply to this topicStart new topic
1 User(s) are reading this topic (1 Guests and 0 Anonymous Users)
0 Members:

 



- Lo-Fi Version Support form
Copyrights and abuse reports form
Time is now: 9th July 2020 - 00:47:29