Welcome Guest ( Log In | Register )

> Releases Upload / Добавление релизов

Добавить релиз тут / Click here to add release
Рекомендованные обменники / Recommended file shares

> Goatkraft & Goathammer - Cemetery Violence [split] (2020), Black/Death Metal | Black/Death Metal (D4)(D6)
post Jan 15 2020, 18:05:58
Post #1

Detective Godzilla
Group Icon
Group: Moderation team
Posts: 3,380
Releases: 295
On Forums: 9 years 2 weeks
Thanks: 10707 time(s)
Russian Federation


(IMG:https://metalarea.org/images/audiocovers/2020_Jan/acov_tid332669_thumb.jpg)

*Artist: Goatkraft & Goathammer
*Album: Cemetery Violence [split]
*Year: 2020
*Genre: Black/Death Metal | Black/Death Metal
*Country: Norway (IMG:https://metalarea.org/forum/style_images/flags/Norway.png) | Canada (IMG:https://metalarea.org/forum/style_images/flags/Canada.png)
*Format: mp3@CBR320kbps
*Size: 80MB

Tracklist:
Goatkraft:
01. Intro 01:05
02. Burial Prophet 03:57
03. War Metal Cult 04:17
04. Hooded Skeletons 04:36
Goathammer:
05. Black Blood Plague 08:04
06. Nuclear Eschaton 03:41
07. Satanic Metal Storm 04:22
******************************
Total playing time: 30:02



Extended info
Personal purchase


Technical info
(IMG:https://metalarea.org/images/spectrogram/2020_Jan/126fefcd7dc44f7d8914e94e2f9d86b6.png)
Input File: Deathcamp Records - GOATKRAFT- GOATHAMMER - -Cemetery Violence- - 02 GOATKRAFT - Burial Prophet.mp3
Channels : 2
Sample Rate : 44100
Precision : 16-bit
Duration : 00:03:57.15 = 10458403 samples = 17786.4 CDDA sectors
File Size : 9.75M
Bit Rate : 329k
Sample Encoding: MPEG audio (layer I, II or III)
Comments :
Title=Burial Prophet
Artist=Goatkraft
Album=Cemetery Violence
Tracknumber=2
Year=2020



Register


Go to the top of the page
  Insert nick Quick quote
+Quote Post
 
Start new topic
Replies (1 - 1)
post Jan 16 2020, 11:38:56
Post #2

Forever Underground
**************
Group: Металариец
Posts: 6,541
Releases: 0
On Forums: 4 years 10 months
Thanks: 7901 time(s)
Unknown


Mirror links
Register


Go to the top of the page
  Insert nick Quick quote
+Quote Post

Reply to this topicStart new topic
1 User(s) are reading this topic (1 Guests and 0 Anonymous Users)
0 Members:

 



- Lo-Fi Version Support form
Copyrights and abuse reports form
Time is now: 21st February 2020 - 15:34:33