Welcome Guest ( Log In | Register )

> Releases Upload / Добавление релизов

Добавить релиз тут / Click here to add release
Рекомендованные обменники / Recommended file shares

 
Reply to this topicStart new topic
> Apathist - Clergy Of Destruction (2019), Blackened Thrash Metal
post Jan 15 2020, 18:21:36
Post #1

Правь статус, ####!111
**************
Group: Металариец
Posts: 20,635
Releases: 14084
From: Г.Харьков
On Forums: 7 years 9 months
Thanks: 248497 time(s)
Unknown


(IMG:http://metalarea.org/images/audiocovers/2020_Jan/acov_tid332671_thumb.jpg)

*Artist: Apathist
*Album: Clergy Of Destruction
*Year: 2019
*Genre: Blackened Thrash Metal
*Country: Unknown (IMG:http://metalarea.org/forum/style_images/flags/Unknown.png)
*Format: mp3@CBR320kbps
*Size: 94MB

Tracklist:
01. I Am Become Death
02. Autopsy
03. 2 Minutes Hate
04. Being Ripped Apart
05. Cold-Sweats (Intrumental)
06. Drenched in Blood
07. Big Boobs and Fire
08. Trial by Stone
09. The Clergy of Destruction
10. Annihilism
11. Subliminal
12. Sentenced to Death
******************************
Total playing time: 40:12

(IMG:http://metalarea.org/images/youtube.png)
(IMG:http://metalarea.org/images/youtube.png)
(IMG:http://metalarea.org/images/youtube.png)

Technical info
(IMG:http://metalarea.org/images/spectrogram/2020_Jan/7d47fa533c1050fc6fea755a50e81b39.png)
Input File: 06 - Drenched in Blood.mp3
Channels : 2
Sample Rate : 44100
Precision : 16-bit
Duration : 00:05:01.08 = 13277672 samples = 22581.1 CDDA sectors
File Size : 12.2M
Bit Rate : 324k
Sample Encoding: MPEG audio (layer I, II or III)
Comments :
Title=Drenched in Blood
Artist=Apathist
Album=Clergy of Destruction
Tracknumber=6
Year=2019-12-29
Genre=Metal
Discnumber=1



Register


Go to the top of the page
  Insert nick Quick quote
+Quote Post

Reply to this topicStart new topic
1 User(s) are reading this topic (1 Guests and 0 Anonymous Users)
0 Members:

 



- Lo-Fi Version Support form
Copyrights and abuse reports form
Time is now: 20th February 2020 - 17:41:16