Welcome Guest ( Log In | Register )

> Releases Upload / Добавление релизов

Добавить релиз тут / Click here to add release
Рекомендованные обменники / Recommended file shares

> Black Kirin - 秦淮 [ep] (2019), Melodic Death/Folk Metal (D7)
post Jan 15 2020, 19:39:23
Post #1

Каждое ваше "Спасибо" помогает мне понять, что я делаю новости не напрасно.
**************
Group: Металариец
Posts: 2,274
Releases: 2006
From: Одесса
On Forums: 11 years 7 months
Thanks: 17875 time(s)
Ukraine


(IMG:http://metalarea.org/images/audiocovers/2020_Jan/acov_tid332673_thumb.jpg)

*Artist: Black Kirin
*Album: 秦淮 [ep]
*Year: 2019
*Genre: Melodic Death/Folk Metal
*Country: China (IMG:http://metalarea.org/forum/style_images/flags/China.png)
*Format: mp3@CBR320kbps
*Size: 75MB

Tracklist:
1.秦淮 12:01
2.故土 02:57 instrumental
3.南京 05:17
4.卸甲一战 04:05
5.凶寒 03:45
6.黑太阳 03:10
******************************
Total playing time: 31:15



Extended info
Line - up:

Fang Sen - Guitars
Huai Wei - Bass (Ephemerality, Skeletal Augury, ex-—)
杜思聪 - Drums
Wu Peng - Guitars (窒息, Massmurder, ex-Regicide)
Filth - Vocals (ObscureDream, Deep Throat, DirtyCreed, DyingMirage, ex-阵亡, ex-黑水仙)

(IMG:https://www.metal-archives.com/images/3/5/4/0/3540368542_photo.jpg?0007)


Technical info
(IMG:http://metalarea.org/images/spectrogram/2020_Jan/c41265c1b24831372fdd9ad1da0b90da.png)
Input File: 03 南京.mp3
Channels : 2
Sample Rate : 44100
Precision : 16-bit
Duration : 00:05:17.54 = 14003470 samples = 23815.4 CDDA sectors
File Size : 12.7M
Bit Rate : 320k
Sample Encoding: MPEG audio (layer I, II or III)
Comments :
Title=南京
Artist=Black Kirin
Album=秦淮 (EP)
Tracknumber=03
Year=2019
Genre=Melodic Death/Folk Metal



Register


Go to the top of the page
  Insert nick Quick quote
+Quote Post
 
Start new topic
Replies (1 - 1)
post Jan 16 2020, 11:36:33
Post #2

Наливай!
**************
Group: Металариец
Posts: 5,535
Releases: 27
From: Москва-Бибирево
On Forums: 11 years 10 months
Thanks: 2710 time(s)
Russian Federation


Go to the top of the page
  Insert nick Quick quote
+Quote Post

Reply to this topicStart new topic
1 User(s) are reading this topic (1 Guests and 0 Anonymous Users)
0 Members:

 



- Lo-Fi Version Support form
Copyrights and abuse reports form
Time is now: 24th January 2020 - 23:53:04