Welcome Guest ( Log In | Register )

> Releases Upload / Добавление релизов

Добавить релиз тут / Click here to add release
Рекомендованные обменники / Recommended file shares

 
Reply to this topicStart new topic
> Venus Torment - The Overdose Of Suffering (2016), Death/Thrash Metal
post Jan 15 2020, 19:39:49
Post #1

Правь статус, ####!111
**************
Group: Металариец
Posts: 20,591
Releases: 14048
From: Г.Харьков
On Forums: 7 years 9 months
Thanks: 247769 time(s)
Unknown


(IMG:http://metalarea.org/images/audiocovers/2020_Jan/acov_tid332674_thumb.jpg)

*Artist: Venus Torment
*Album: The Overdose Of Suffering
*Year: 2016
*Genre: Death/Thrash Metal
*Country: Chile (IMG:http://metalarea.org/forum/style_images/flags/Chile.png)
*Format: mp3@CBR320kbps
*Size: 92MB

Tracklist:
1. Signal of Death 01:12 instrumental
2. The Overdose of Suffering 03:08
3. Unknown Force 04:23
4. Before Suicide 03:16
5. Ultrasensible Anatomy 02:45
6. Obsessed 02:34
7. Scared Ectoplasm 03:47
8. Astraphobia 03:13
9. The Daywalker 03:54
10. Lunatic Somnophilia 02:33
11. Sex in the Cemetary 04:49
12. The Typewriter of Creation 03:36
******************************
Total playing time: 39:10




Extended info
Venus Torment - Screams, Bass, Guitars
Rotten - Drums


Technical info
(IMG:http://metalarea.org/images/spectrogram/2020_Jan/c757f5460ee4176f631b52d0aaa36bbb.png)
Input File: 03 - Unknown Force.mp3
Channels : 2
Sample Rate : 44100
Precision : 16-bit
Duration : 00:04:23.51 = 11620967 samples = 19763.5 CDDA sectors
File Size : 10.7M
Bit Rate : 325k
Sample Encoding: MPEG audio (layer I, II or III)
Comments :
Title=Unknown Force
Artist=Venus Torment
Album=The Overdose of Suffering
Tracknumber=3
Year=2016-04-09
Discnumber=1



Register


Go to the top of the page
  Insert nick Quick quote
+Quote Post

Reply to this topicStart new topic
1 User(s) are reading this topic (1 Guests and 0 Anonymous Users)
0 Members:

 



- Lo-Fi Version Support form
Copyrights and abuse reports form
Time is now: 16th February 2020 - 20:42:34