Welcome Guest ( Log In | Register )

> Releases Upload / Добавление релизов

Добавить релиз тут / Click here to add release
Рекомендованные обменники / Recommended file shares

> Sallow Moth - The Larval Hope (2020), Death Metal
post Jan 15 2020, 20:05:04
Post #1

Каждое ваше "Спасибо" помогает мне понять, что я делаю новости не напрасно.
**************
Group: Металариец
Posts: 2,347
Releases: 2072
From: Одесса
On Forums: 11 years 8 months
Thanks: 18921 time(s)
Ukraine


(IMG:http://metalarea.org/images/audiocovers/2020_Jan/acov_tid332675_thumb.jpg)

*Artist: Sallow Moth
*Album: The Larval Hope
*Year: 2020
*Genre: Death Metal
*Country: United States (IMG:http://metalarea.org/forum/style_images/flags/United%20States.png)
*Format: mp3@CBR320kbps
*Size: 74MB

Tracklist:
1.Noxious Revival 05:51
2.Death Mutation vs Metallurgic Summonings 03:07
3.The Larval Hope (Piercer of Spells) 04:39
4.Temporal Trespass 04:57
5.Ancient Grudge 04:02
6.Glimpse the Unthinkable 08:45
******************************
Total playing time: 31:21



Extended info
Line - up:
Garry Brents - All instruments, Vocals, Songwriting (Cara Neir, Thō, ex-Ghastrah Proxiima, ex-Parabstruse, ex-Semen Across Lips, Bunrage, They Mostly Come Out at Night, ex-Wildspeaker, ex-Lunarian Sea, ex-Nautilusk, ex-Smoosz, ex-Sugar Highlands, ex-Writhe)

Guest/Session:
Armando Puente Jr - Guitar Solo on Track 1
Andrea Taylor - Robotic speech on Track 2

(IMG:https://www.metal-archives.com/images/3/5/4/0/3540438444_photo.jpg?1538)


Technical info
(IMG:http://metalarea.org/images/spectrogram/2020_Jan/c18c369a728fec04882e84a354babe26.png)
Input File: 03. The Larval Hope (Piercer of Spells).mp3
Channels : 2
Sample Rate : 44100
Precision : 16-bit
Duration : 00:04:39.87 = 12342179 samples = 20990.1 CDDA sectors
File Size : 11.2M
Bit Rate : 320k
Sample Encoding: MPEG audio (layer I, II or III)
Comments :
Title=The Larval Hope (Piercer of Spells)
Artist=Sallow Moth
Album=The Larval Hope
Tracknumber=3
Year=2020
Genre=22



Register


Go to the top of the page
  Insert nick Quick quote
+Quote Post
 
Start new topic
Replies (1 - 2)
post Feb 11 2020, 10:29:33    Сейчас играет: Abkehr - I
Post #2

antithesis
**************
Group: Металариец
Posts: 2,949
Releases: 33
From: VRN
On Forums: 9 years 9 months
Thanks: 1798 time(s)
Russian Federation


mirror, pls
Go to the top of the page
  Insert nick Quick quote
+Quote Post
post Feb 18 2020, 16:16:57
Post #3

Group: Подсевший
Posts: 10
Releases: 0
On Forums: 9 months 2 weeks
Thanks: 0 time(s)
Russian Federation


Свежо, интересно и необычно. Ближайшие ориентиры Cynic и Atheist? Возможно, но скорее просто где-то рядом.
Go to the top of the page
  Insert nick Quick quote
+Quote Post

Reply to this topicStart new topic
1 User(s) are reading this topic (1 Guests and 0 Anonymous Users)
0 Members:

 



- Lo-Fi Version Support form
Copyrights and abuse reports form
Time is now: 24th February 2020 - 08:57:10