Welcome Guest ( Log In | Register )

> И неформату есть предел.

Рэп/хип-хоп/шансон/поп удаляются. Для них есть свои порталы.

> Distel - Wapens (2018), Industrial/Experimental/Angst Pop/Power Electronics
post Jan 15 2020, 21:00:34
Post #1

Три Литра
***
Group: Завсегдатай
Posts: 229
Releases: 8
From: Санкт-Петербург
On Forums: 14 years 4 months
Thanks: 808 time(s)
Russian Federation


(IMG:http://metalarea.org/images/audiocovers/2020_Jan/acov_tid332676_thumb.jpg)

*Artist: Distel
*Album: Wapens
*Year: 2018
*Genre: Industrial/Experimental/Angst Pop/Power Electronics
*Country: Netherlands (IMG:http://metalarea.org/forum/style_images/flags/Netherlands.png)
*Format: mp3@CBR320kbps
*Size: 102MB

Tracklist:
01. Alpha 03:57
02. Wapens 04:20
03. Majestik 03:18
04. Anima 04:17
05. Ultra 03:55
06. Creole 03:48
07. Adem 04:22
08. Nachtland 06:55
09. Maskers 03:44
10. Advent 05:28
******************************
Total playing time: 44:04

(IMG:http://metalarea.org/images/youtube.png)


Extended info
"...Мистическая шумовая электроника, базирующаяся на минималистичных структурах, приглушённый зловещий вокал, атмосфера чего-то необъяснимо тревожного, парадоксального и инопланетного. Проект примечателен тем, что избегая экстремальных приёмов в плане саунда и визуальной эстетики, создает уникальный психоделический образ, в котором чувствуется особенное, только самим авторам до конца понятное отчаяние. Их последний релиз "Wapens", изданный культовым немецким лейблом Ant-Zen, не стал исключением из общего правила; напротив, оригинальная сюрреал-стилистика, присутствовавшая на предыдущих альбомах, в контексте актуального материала оказалась отшлифована до блеска, если так можно говорить о жанре ангст-поп..."

Из ближайших ориентиров, наверное, Haus Arafna.


Technical info
(IMG:http://metalarea.org/images/spectrogram/2020_Jan/4248d4e065620e83aebc3f929b8176b1.png)
Input File: 01 - Alpha.mp3
Channels : 2
Sample Rate : 44100
Precision : 16-bit
Duration : 00:03:57.65 = 10480453 samples = 17823.9 CDDA sectors
File Size : 9.51M
Bit Rate : 320k
Sample Encoding: MPEG audio (layer I, II or III)
Comments :
Title=Alpha
Artist=Distel
Album=Wapens
Tracknumber=01
Year=2018
Genre=Industrial/Experimental/Angst Pop/Power Electronics



Register


Go to the top of the page
  Insert nick Quick quote
+Quote Post
 
Start new topic
Replies (1 - 1)
post Jan 17 2020, 21:45:47
Post #2

Group: Подсевший
Posts: 14
Releases: 1
On Forums: 8 months 4 weeks
Thanks: 42 time(s)
Unknown


ЦИТАТА(as71 @ 16th January 2020 - 01:00:34) *
Из ближайших ориентиров, наверное, Haus Arafna.

Такое же заунывное уныние, по крайней мере по первым нескольким трекам сложилось именно такое впечатление.
Go to the top of the page
  Insert nick Quick quote
+Quote Post

Reply to this topicStart new topic
1 User(s) are reading this topic (1 Guests and 0 Anonymous Users)
0 Members:

 



- Lo-Fi Version Support form
Copyrights and abuse reports form
Time is now: 28th September 2020 - 11:55:53