Welcome Guest ( Log In | Register )

> Releases Upload / Добавление релизов

Добавить релиз тут / Click here to add release
Рекомендованные обменники / Recommended file shares

 
Reply to this topicStart new topic
> Burn Damage - Age Of Vultures (2016), Thrash/Death/Groove Metal
post Jan 15 2020, 21:47:01
Post #1

Правь статус, ####!111
**************
Group: Металариец
Posts: 20,591
Releases: 14048
From: Г.Харьков
On Forums: 7 years 9 months
Thanks: 247762 time(s)
Unknown


(IMG:http://metalarea.org/images/audiocovers/2020_Jan/acov_tid332677_thumb.jpg)

*Artist: Burn Damage
*Album: Age Of Vultures
*Year: 2016
*Genre: Thrash/Death/Groove Metal
*Country: Portugal (IMG:http://metalarea.org/forum/style_images/flags/Portugal.png)
*Format: mp3@CBR320kbps
*Size: 74MB

Tracklist:
1. Age of Vultures 05:20
2. My Own Game 02:36
3. Seventh Seal 03:49
4. 4 Little Pigs 03:13
5. Refugee 04:39
6. Slaughterhouse of Cowards 04:32
7. Acid Rain 04:41
8. Beyond Good and Evil 03:16
******************************
Total playing time: 32:06




Extended info
Alex Drums (2008-present)
Inês Vocals (2011-present)
Rui Luís Bass (2015-present)
See also: ex-Okkultist (live)
Ivo Durães Guitars (2015-present)
See also: Sinmattic



Technical info
(IMG:http://metalarea.org/images/spectrogram/2020_Jan/b6567e9194bdfe4c7f6ffd025b8bc158.png)
Input File: 05 - Refugee.mp3
Channels : 2
Sample Rate : 44100
Precision : 16-bit
Duration : 00:04:40.36 = 12364052 samples = 21027.3 CDDA sectors
File Size : 11.3M
Bit Rate : 322k
Sample Encoding: MPEG audio (layer I, II or III)
Comments :
Title=Refugee
Artist=Burn Damage
Album=Age of Vultures
Tracknumber=5
Year=2017-01-17
Genre=Metal
Discnumber=1



Register


Go to the top of the page
  Insert nick Quick quote
+Quote Post

Reply to this topicStart new topic
1 User(s) are reading this topic (1 Guests and 0 Anonymous Users)
0 Members:

 



- Lo-Fi Version Support form
Copyrights and abuse reports form
Time is now: 16th February 2020 - 19:49:41