Welcome Guest ( Log In | Register )

 
Reply to this topicStart new topic
> Ceifador - All Hell Breaking Loose (2020), Blackened Heavy/Thrash Metal (D)
post Jan 15 2020, 23:00:24
Post #1

Правь статус, ####!111
**************
Group: Металариец
Posts: 20,672
Releases: 14115
From: Г.Харьков
On Forums: 7 years 9 months
Thanks: 249380 time(s)
Unknown


(IMG:http://metalarea.org/images/audiocovers/2020_Jan/acov_tid332678_thumb.jpg)

*Artist: Ceifador
*Album: All Hell Breaking Loose
*Year: 2020
*Genre: Blackened Heavy/Thrash Metal
*Country: Brazil (IMG:http://metalarea.org/forum/style_images/flags/Brazil.png)
*Format: mp3@CBR320kbps
*Size: 65MB

Tracklist:
1. All Hell Breaking Loose 04:04
2. Hell Sword 03:17
3. Wine of Blood 04:23
4. Gods of Evil 03:26
5. Eye of Devil 02:42
6. Rot in Oblivion 04:12
7. Morbid Dreams 02:42
8. Don't Pray for the Dead 03:10
******************************
Total playing time: 27:56




Extended info
Zelão Drums
Mateus Tozzi Guitars
Clayton Maximinus Bass, Vocals (2003-present)
See also: ex-Alcoholikiller


Technical info
(IMG:http://metalarea.org/images/spectrogram/2020_Jan/976519d49b4df4a902cd9cc4b3ea1c42.png)
Input File: 03 - Wine of Blood.mp3
Channels : 2
Sample Rate : 44100
Precision : 16-bit
Duration : 00:04:23.12 = 11603724 samples = 19734.2 CDDA sectors
File Size : 10.6M
Bit Rate : 323k
Sample Encoding: MPEG audio (layer I, II or III)
Comments :
Title=Wine of Blood
Artist=CEIFADOR
Album=All Hell Breaking Loose
Tracknumber=3
Year=2020-01-15
Genre=Rock
Discnumber=1



Register


Go to the top of the page
  Insert nick Quick quote
+Quote Post

Reply to this topicStart new topic
1 User(s) are reading this topic (1 Guests and 0 Anonymous Users)
0 Members:

 



- Lo-Fi Version Support form
Copyrights and abuse reports form
Time is now: 24th February 2020 - 23:54:51