Welcome Guest ( Log In | Register )

 
Reply to this topicStart new topic
> Macabre Demise - Awakening (2020), Brutal Death Metal (D9)
post Jan 16 2020, 02:54:09
Post #1

Правь статус, ####!111
**************
Group: Металариец
Posts: 23,226
Releases: 16194
From: Г.Харьков
On Forums: 8 years 4 months
Thanks: 301893 time(s)
Unknown


(IMG:http://metalarea.org/images/audiocovers/2020_Jan/acov_tid332679_thumb.jpg)

*Artist: Macabre Demise
*Album: Awakening
*Year: 2020
*Genre: Brutal Death Metal
*Country: Germany (IMG:http://metalarea.org/forum/style_images/flags/Germany.png)
*Format: mp3@CBR320kbps
*Size: 77MB

Tracklist:
01. Intro
02. Awakening
03. Mirror
04. Corpseball
05. Darkness
06. Gore and Guts
07. Prelude to Kill
08. Chamber of Pain
09. Slush Brains
10. Disturbia
11. 11 (Bonustrack)
******************************
Total playing time: 32:31





Extended info
Andreas Rieger All instruments, Vocals (2007-present)
See also: Bloodshot Eyes, Deformed Cadaver, Flesh Eater, ex-Plastic Surgery




Technical info
(IMG:http://metalarea.org/images/spectrogram/2020_Jan/d0f9c50a718f7890b2480d6ba15485d5.png)
Input File: 04 - Corpseball.mp3
Channels : 2
Sample Rate : 44100
Precision : 16-bit
Duration : 00:04:15.21 = 11254629 samples = 19140.5 CDDA sectors
File Size : 10.4M
Bit Rate : 325k
Sample Encoding: MPEG audio (layer I, II or III)
Comments :
Title=Corpseball
Artist=Macabre Demise
Album=Awakening
Tracknumber=4
Year=2020-01-16
Genre=Metal
Discnumber=1



Register


Go to the top of the page
  Insert nick Quick quote
+Quote Post

Reply to this topicStart new topic
1 User(s) are reading this topic (1 Guests and 0 Anonymous Users)
0 Members:

 



- Lo-Fi Version Support form
Copyrights and abuse reports form
Time is now: 24th September 2020 - 22:20:54