Welcome Guest ( Log In | Register )

> Necromancer - Complete Collection [compilation] (2014), Thrash Metal
post Jan 16 2020, 04:22:41
Post #1

Подвал
**************
Group: Металариец
Posts: 14,177
Releases: 8025
From: Far East (Khabarovsk)
On Forums: 11 years 4 weeks
Thanks: 79267 time(s)
Russian Federation


(IMG:http://metalarea.org/images/audiocovers/2020_Jan/acov_tid332680_thumb.PNG)

*Artist: Necromancer
*Album: Complete Collection [compilation]
*Year: 2014
*Genre: Thrash Metal
*Country: Finland (IMG:http://metalarea.org/forum/style_images/flags/Finland.png)
*Format: mp3@CBR128kbps (IMG:http://metalarea.org/images/bit_low.gif)
*Size: 69MB

Tracklist:
1. Downfall 05:37
2. Liquid Sky 05:18
3. Violence Show 03:44
4. Intruder 03:55
5. Days Of Fury 04:26
6. Death Blow 03:38
7. Ravaged 04:42
8. Rocka Rolla (Judas Priest cover) 03:23
9. Malicious Death II 02:04
10. Rapid Fire 03:09
11. Head Hunter 03:26
12. Malicious Death 02:52
13. Prolicide (Instrumental) 04:42
14. Enforced To Kill 03:33
15. Cross Of Hate 05:52
16. Intro - The Necromancer 02:36
17. Raising Werewolf 02:46
18. Enforced To Kill 03:14
19. Malicious Death 03:06
20. Battery (Metallica cover) 03:53
******************************
Total playing time: 1:15:56

Extended info
Self-released by the band:
01-02: "Downfall" Ep 1990
03-08: Demo III 1988
09-11: Demo II 1987
12-15: "Prolicide" Demo I 1987 (released as Necrotomic)
16-19: Unreleased Rehearsal 1986
20: Recorded in 1989


Technical info
(IMG:http://metalarea.org/images/spectrogram/2020_Jan/52978535dd025d52e613b69a760418f5.png)
Input File: 01-Downfall (1990).mp3
Channels : 2
Sample Rate : 44100
Precision : 16-bit
Duration : 00:05:37.77 = 14895569 samples = 25332.6 CDDA sectors
File Size : 5.44M
Bit Rate : 129k
Sample Encoding: MPEG audio (layer I, II or III)
Comments :
Title=Downfall (1990)
Artist=Necromancer
Album=Complete Collection
Tracknumber=01/20
Year=1986-1991
Genre=Speed/Thrash Metal
Discnumber=01/01



Register


Go to the top of the page
  Insert nick Quick quote
+Quote Post
 
Start new topic
Replies (1 - 1)
post Jan 16 2020, 10:40:27
Post #2

Подвал
**************
Group: Металариец
Posts: 14,177
Releases: 8025
From: Far East (Khabarovsk)
On Forums: 11 years 4 weeks
Thanks: 79267 time(s)
Russian Federation




link for this rehearsal (this recording didn't fit in the compilation):
Register


Thanks:
(1) Wail,
Go to the top of the page
  Insert nick Quick quote
+Quote Post

Reply to this topicStart new topic
1 User(s) are reading this topic (1 Guests and 0 Anonymous Users)
0 Members:

 



- Lo-Fi Version Support form
Copyrights and abuse reports form
Time is now: 24th February 2020 - 10:13:30