Welcome Guest ( Log In | Register )

> Releases Upload / Добавление релизов

Добавить релиз тут / Click here to add release
Рекомендованные обменники / Recommended file shares

> The Head Of Helier - The Head Of Helier (2019), Atmospheric Black/Death Metal
post Jan 16 2020, 09:11:14
Post #1

Правь статус, ####!111
**************
Group: Металариец
Posts: 6,254
Releases: 5766
From: Lithuania
On Forums: 13 years 4 months
Thanks: 42601 time(s)
Lithuania


(IMG:https://metalarea.org/images/audiocovers/2020_Jan/acov_tid332681_thumb.jpg)

*Artist: The Head Of Helier
*Album: The Head Of Helier
*Year: 2019
*Genre: Atmospheric Black/Death Metal
*Country: Unknown (IMG:https://metalarea.org/forum/style_images/flags/Unknown.png)
*Format: mp3@VBR280kbps
*Size: 84MB

Tracklist:
1. Geoffrey's Leap 09:02
2. La Tueûthie 08:04
3. Lé Rotchi d'Rocque Bèr 05:23
4. Minot's Light 13:05
5. Lé Creux au Dgiâbl'ye 05:31
******************************
Total playing time: 41:05




Extended info
One man black metal project from Jersey, Channel Islands.


Technical info
(IMG:https://metalarea.org/images/spectrogram/2020_Jan/23204107341268495e9753580a825775.png)
Input File: 02 La Tueûthie.mp3
Channels : 2
Sample Rate : 44100
Precision : 16-bit
Duration : 00:08:44.56 = 23133272 samples = 39342.3 CDDA sectors
File Size : 18.2M
Bit Rate : 278k
Sample Encoding: MPEG audio (layer I, II or III)
Comments :
Title=La Tueûthie
Artist=The Head of Helier
Album=The Head of Helier
Tracknumber=2
Year=2019



Register


Go to the top of the page
  Insert nick Quick quote
+Quote Post
 
Start new topic
Replies (1 - 1)
post Feb 11 2020, 11:00:59    Сейчас играет: Abkehr - I
Post #2

antithesis
**************
Group: Металариец
Posts: 2,953
Releases: 33
From: VRN
On Forums: 9 years 9 months
Thanks: 1799 time(s)
Russian Federation


mirror, pls
Go to the top of the page
  Insert nick Quick quote
+Quote Post

Reply to this topicStart new topic
1 User(s) are reading this topic (1 Guests and 0 Anonymous Users)
0 Members:

 



- Lo-Fi Version Support form
Copyrights and abuse reports form
Time is now: 25th February 2020 - 00:52:49