Welcome Guest ( Log In | Register )

 
Reply to this topicStart new topic
> Новое Время - Шаг В Преисподню (1991), Heavy Metal/Hard Rock
post Jan 16 2020, 10:25:23
Post #1

Правь статус, ####!111
**************
Group: Металариец
Posts: 6,536
Releases: 6020
From: Lithuania
On Forums: 14 years 2 weeks
Thanks: 45585 time(s)
Lithuania


(IMG:https://metalarea.org/images/audiocovers/2020_Jan/acov_tid332683_thumb.jpg)

*Artist: Новое Время
*Album: Шаг В Преисподню
*Year: 1991
*Genre: Heavy Metal/Hard Rock
*Country: Kyrgyzstan (IMG:https://metalarea.org/forum/style_images/flags/Kyrgyzstan.png)
*Format: mp3@CBR128kbps (IMG:https://metalarea.org/images/bit_low.gif)
*Size: 37MB

Tracklist:
1. Время ушло 04:35
2. Кровь 04:40
3. Шаг в преисподню 04:03
4. У трав, рождающих испуг 04:56
5. Христос из Назарета 04:34
6. Чужой 03:01
7. Миллионер 03:25
8. Час настал 03:03
9. Смертный мир 03:30
10. Дружбы костёр 02:42
******************************
Total playing time: 38:29

(IMG:https://metalarea.org/images/youtube.png)

Technical info
(IMG:https://metalarea.org/images/spectrogram/2020_Jan/ef84254f19f9f8b8721f054125f6b1a4.png)
Input File: 03 Шаг в преисподню.mp3
Channels : 2
Sample Rate : 44100
Precision : 16-bit
Duration : 00:04:10.71 = 11056091 samples = 18802.9 CDDA sectors
File Size : 4.15M
Bit Rate : 132k
Sample Encoding: MPEG audio (layer I, II or III)
Comments :
Title=Ųąć ā ļšåčńļīäķž
Artist=Новое Время
Album=Шаг в преисподню
Tracknumber=3
Year=1991
Genre=9



Register


Go to the top of the page
  Insert nick Quick quote
+Quote Post

Reply to this topicStart new topic
1 User(s) are reading this topic (1 Guests and 0 Anonymous Users)
0 Members:

 



- Lo-Fi Version Support form
Copyrights and abuse reports form
Time is now: 23rd October 2020 - 09:02:13