Welcome Guest ( Log In | Register )

> Releases Upload / Добавление релизов

Добавить релиз тут / Click here to add release
Рекомендованные обменники / Recommended file shares

 
Reply to this topicStart new topic
> Martyrion - The Early Days [ep] (2012), Melodic Death Metal (D4)
post Jan 16 2020, 10:31:01
Post #1

Правь статус, ####!111
**************
Group: Металариец
Posts: 6,156
Releases: 5673
From: Lithuania
On Forums: 13 years 3 months
Thanks: 41796 time(s)
Lithuania


(IMG:https://metalarea.org/images/audiocovers/2020_Jan/acov_tid332684_thumb.jpg)

*Artist: Martyrion
*Album: The Early Days [ep]
*Year: 2012
*Genre: Melodic Death Metal
*Country: Germany (IMG:https://metalarea.org/forum/style_images/flags/Germany.png)
*Format: mp3@CBR320kbps
*Size: 27MB

Tracklist:
1. Beneath the Wasteland 04:41
2. Martyrion 03:41
3. Red Sun Rises 03:27
******************************
Total playing time: 11:49


(IMG:https://metalarea.org/images/youtube.png)


Technical info
(IMG:https://metalarea.org/images/spectrogram/2020_Jan/58b3b3cfd513eaf49e6c9f487a2807d2.png)
Input File: 02 - Martyrion.mp3
Channels : 2
Sample Rate : 44100
Precision : 16-bit
Duration : 00:03:41.66 = 9775382 samples = 16624.8 CDDA sectors
File Size : 8.88M
Bit Rate : 321k
Sample Encoding: MPEG audio (layer I, II or III)
Comments :
Title=Martyrion
Artist=Martyrion
Album=The Early Days
Tracknumber=2
Year=2012
Genre=Death Metal



Register


Go to the top of the page
  Insert nick Quick quote
+Quote Post

Reply to this topicStart new topic
1 User(s) are reading this topic (1 Guests and 0 Anonymous Users)
0 Members:

 



- Lo-Fi Version Support form
Copyrights and abuse reports form
Time is now: 28th January 2020 - 23:14:48