Welcome Guest ( Log In | Register )

> Arcana XXII - Fallen From Grace (1999), Heavy Metal
post Jan 16 2020, 10:42:22
Post #1

Правь статус, ####!111
**************
Group: Металариец
Posts: 6,081
Releases: 5604
From: Lithuania
On Forums: 13 years 3 months
Thanks: 41224 time(s)
Lithuania


(IMG:https://metalarea.org/images/audiocovers/2020_Jan/acov_tid332685.jpg)

*Artist: Arcana XXII
*Album: Fallen From Grace
*Year: 1999
*Genre: Heavy Metal
*Country: Namibia (IMG:https://metalarea.org/forum/style_images/flags/Namibia.png)
*Format: mp3@CBR320kbps
*Size: 119MB

Tracklist:
1. Mirror 05:40
2. Easy Come 04:45
3. Mordor 05:35
4. Angel 05:49
5. Demon Flower 04:30
6. Broken Highway 06:41
7. Necromancer 05:34
8. Darkland 08:43
9. Tunnels 03:16
10. Fallen from Grace 01:05
******************************
Total playing time: 51:38




Technical info
(IMG:https://metalarea.org/images/spectrogram/2020_Jan/69102becd866f761e6dbeab827dfa6d7.png)
Input File: 02 - Easy Come.mp3
Channels : 2
Sample Rate : 44100
Precision : 16-bit
Duration : 00:04:47.02 = 12657626 samples = 21526.6 CDDA sectors
File Size : 11.5M
Bit Rate : 320k
Sample Encoding: MPEG audio (layer I, II or III)
Comments :
Title=Easy Come
Artist=Arcana XXII
Album=Fallen From Grace
Tracknumber=02
Year=1999
Genre=9



Register


Go to the top of the page
  Insert nick Quick quote
+Quote Post
 
Start new topic
Replies (1 - 1)
post Jan 16 2020, 12:24:59
Post #2

Два Литра
**
Group: Завсегдатай
Posts: 199
Releases: 0
On Forums: 13 years 11 months
Thanks: 25 time(s)
Russian Federation


Great group! Literally an underdog!
Go to the top of the page
  Insert nick Quick quote
+Quote Post

Reply to this topicStart new topic
1 User(s) are reading this topic (1 Guests and 0 Anonymous Users)
0 Members:

 



- Lo-Fi Version Support form
Copyrights and abuse reports form
Time is now: 18th January 2020 - 02:06:19