Welcome Guest ( Log In | Register )

 
Reply to this topicStart new topic
> Necrofago - Del Mas Allá [demo] (1993), Death Metal
post Jan 16 2020, 11:06:20
Post #1

Подвал
**************
Group: Металариец
Posts: 14,177
Releases: 8025
From: Far East (Khabarovsk)
On Forums: 11 years 4 weeks
Thanks: 79248 time(s)
Russian Federation


(IMG:http://metalarea.org/images/audiocovers/2020_Jan/acov_tid332686_thumb.jpg)

*Artist: Necrofago
*Album: Del Mas Allá [demo]
*Year: 1993
*Genre: Death Metal
*Country: Venezuela (IMG:http://metalarea.org/forum/style_images/flags/Venezuela.png)
*Format: mp3@CBR192kbps
*Size: 27MB

Tracklist:
1. All In Hell 03:11
2. Organ Business 02:08
3. Condemned To Live 03:40
4. To Be Or Not To Be 03:09
5. Infinite Land 04:09
6. Evil Light 03:36
******************************
Total playing time: 19:53

Technical info
(IMG:http://metalarea.org/images/spectrogram/2020_Jan/9d92858af7dc8c404e47c56a0fba06aa.png)
Input File: 01-All In Hell.mp3
Channels : 2
Sample Rate : 44100
Precision : 16-bit
Duration : 00:03:08.51 = 8313291 samples = 14138.2 CDDA sectors
File Size : 4.53M
Bit Rate : 192k
Sample Encoding: MPEG audio (layer I, II or III)
Comments :
Title=All In Hell
Artist=Necrofago (Ven)
Album=Del Mas Alla (Demo)
Tracknumber=01
Year=1993
Genre=Death Metal



Register


Go to the top of the page
  Insert nick Quick quote
+Quote Post

Reply to this topicStart new topic
1 User(s) are reading this topic (1 Guests and 0 Anonymous Users)
0 Members:

 



- Lo-Fi Version Support form
Copyrights and abuse reports form
Time is now: 24th February 2020 - 08:41:05