Welcome Guest ( Log In | Register )

 
Reply to this topicStart new topic
> Martelgang - De Wrekende Hand (2020), Industrial Black Metal (D5)
post Jan 16 2020, 11:21:24
Post #1

Serial Uploader
Group Icon
Group: V.I.P
Posts: 37,221
Releases: 35404
From: Lithuania
On Forums: 12 years 1 month
Thanks: 421574 time(s)
Lithuania


(IMG:http://metalarea.org/images/audiocovers/2020_Jan/acov_tid332687_thumb.jpg)

*Artist: Martelgang
*Album: De Wrekende Hand
*Year: 2020
*Genre: Industrial Black Metal
*Country: Netherlands (IMG:http://metalarea.org/forum/style_images/flags/Netherlands.png)
*Format: mp3@CBR320kbps
*Size: 91MB

Tracklist:
01. Noordland 03:45
02. Hoe de bange tijd kwam 04:49
03. Oudste leer 04:18
04. De lofspraak der Burgtmaagd 06:27
05. Bepalingen voor de hoerenkinderen 04:17
06. Uit de schriften van Minno 05:38
07. Dit staat op al onze burgen 04:33
08. Hoe het den Magy verder gegaan is 05:13
******************************
Total playing time: 39:00



(IMG:http://metalarea.org/images/youtube.png)

Technical info
(IMG:http://metalarea.org/images/spectrogram/2020_Jan/ff6512e71c18c3fe64a51adb8e0a42a8.png)
Input File: 02. Hoe de bange tijd kwam.mp3
Channels : 2
Sample Rate : 44100
Precision : 16-bit
Duration : 00:04:49.64 = 12772904 samples = 21722.6 CDDA sectors
File Size : 11.7M
Bit Rate : 323k
Sample Encoding: MPEG audio (layer I, II or III)
Comments :
Title=Hoe de bange tijd kwam
Artist=Martelgang
Album=De wrekende hand
Tracknumber=2
Year=2020



Register


Go to the top of the page
  Insert nick Quick quote
+Quote Post

Reply to this topicStart new topic
1 User(s) are reading this topic (1 Guests and 0 Anonymous Users)
0 Members:

 



- Lo-Fi Version Support form
Copyrights and abuse reports form
Time is now: 14th July 2020 - 05:11:33