Welcome Guest ( Log In | Register )

> Bleed The Sky - This Way Lies Madness (2020), Groove Metal (D4)
post Jan 16 2020, 11:38:49
Post #1

Serial Uploader
Group Icon
Group: V.I.P
Posts: 37,392
Releases: 35571
From: Lithuania
On Forums: 12 years 3 months
Thanks: 425370 time(s)
Lithuania


(IMG:http://metalarea.org/images/audiocovers/2020_Jan/acov_tid332690_thumb.jpg)

*Artist: Bleed The Sky
*Album: This Way Lies Madness
*Year: 2020
*Genre: Groove Metal
*Country: United States (IMG:http://metalarea.org/forum/style_images/flags/United%20States.png)
*Format: mp3@CBR320kbps
*Size: 82MB

Tracklist:
01. Tongue Louse 05:38
02. Carnage (Join Me in the Fire) 04:24
03. Serpent 04:08
04. Quiet Here 04:11
05. Membrane 01:55
06. Ghost 03:51
07. Age of the Basilisk (feat. Aaron Korstjens) 03:49
08. Carrion Bather (feat. Steve Tinnon) 03:19
09. This Way Lies Madness 04:22
******************************
Total playing time: 35:37


(IMG:http://metalarea.org/images/youtube.png)

Technical info
(IMG:http://metalarea.org/images/spectrogram/2020_Jan/be12cf1f74166c176c37b7521ab9f412.png)
Input File: 02 Carnage (Join Me in the Fire).mp3
Channels : 2
Sample Rate : 44100
Precision : 16-bit
Duration : 00:04:24.09 = 11646193 samples = 19806.5 CDDA sectors
File Size : 10.6M
Bit Rate : 320k
Sample Encoding: MPEG audio (layer I, II or III)
Comments :
Title=Carnage (Join Me in the Fire)
Artist=Bleed The Sky
Album=This Way Lies Madness
Tracknumber=02/09
Year=2020-20-20
Discnumber=1/1



Register


Go to the top of the page
  Insert nick Quick quote
+Quote Post
 
Start new topic
Replies (1 - 4)
post Jan 16 2020, 18:01:46
Post #2

Семь Литров
*******
Group: Металариец
Posts: 724
Releases: 0
From: Sweden
On Forums: 11 years 6 months
Thanks: 19 time(s)
Sweden


Thank you.
Go to the top of the page
  Insert nick Quick quote
+Quote Post
post Jan 20 2020, 08:53:11
Post #3

Ъ
**************
Group: Металариец
Posts: 10,226
Releases: 9
On Forums: 11 years 8 months
Thanks: 2065 time(s)
Sweden


В превью третьесортная коровая говнина, хз может в остальных треках грув.
Go to the top of the page
  Insert nick Quick quote
+Quote Post
post Jan 20 2020, 11:39:52
Post #4

brutalcesar
**************
Group: Металариец
Posts: 17,982
Releases: 67
From: Рязань
On Forums: 11 years 8 months
Thanks: 9884 time(s)
Russian Federation


Смесь грува и металкора, какими они всегда и были. Только здесь кора больша, тогда как в 2008 было наоборот, там грува было поболее, насколько помню. Хотя дело это не меняет. Пригрувленый кор, нах
Go to the top of the page
  Insert nick Quick quote
+Quote Post
post Jan 30 2020, 11:22:03
Post #5

Азъ есн Хаос
**********
Group: Металариец
Posts: 1,495
Releases: 164
From: Россия Москва
On Forums: 13 years 8 months
Thanks: 1743 time(s)
Russian Federation


Видюшник суровый приложин. Даже сам помню выкладывал, давным давно, нормально давят.
Go to the top of the page
  Insert nick Quick quote
+Quote Post

Reply to this topicStart new topic
1 User(s) are reading this topic (1 Guests and 0 Anonymous Users)
0 Members:

 



- Lo-Fi Version Support form
Copyrights and abuse reports form
Time is now: 23rd September 2020 - 09:27:24