Welcome Guest ( Log In | Register )

 
Reply to this topicStart new topic
> Subjugator - Live [live] (1994), Thrash Metal
post Jan 16 2020, 11:41:49
Post #1

Подвал
**************
Group: Металариец
Posts: 15,142
Releases: 8582
From: Far East (Khabarovsk)
On Forums: 11 years 7 months
Thanks: 90457 time(s)
Russian Federation


(IMG:http://metalarea.org/images/audiocovers/2020_Jan/acov_tid332691_thumb.jpg)

*Artist: Subjugator
*Album: Live [live]
*Year: 1994
*Genre: Thrash Metal
*Country: United States (IMG:http://metalarea.org/forum/style_images/flags/United%20States.png)
*Format: mp3@CBR320kbps
*Size: 29MB

Tracklist:
1. Leaders Of The Sheep 02:12
2. I Don't Need Society (D.R.I. cover) 01:42
3. Mortal Progression 02:39
4. Grocery Store Customer 02:57
5. United Forces (S.O.D. cover) 01:31
6. Political Disgust (bonus studio track) 01:28
******************************
Total playing time: 12:29

(IMG:http://metalarea.org/images/youtube.png)

Extended info
Band from Huntington Beach, California.
Tracks 1-5 recorded live on 9/18/93 in Anaheim, California.
Track 6 recorded 12/11/93 at Selah Recording Studio, Westminster, California.


Technical info
(IMG:http://metalarea.org/images/spectrogram/2020_Jan/ee5458d6bec2987c9db59f87079895b8.png)
Input File: 02-I Don't Need Society.mp3
Channels : 2
Sample Rate : 44100
Precision : 16-bit
Duration : 00:01:42.25 = 4509313 samples = 7668.9 CDDA sectors
File Size : 4.09M
Bit Rate : 320k
Sample Encoding: MPEG audio (layer I, II or III)
Comments :
Title=I Don't Need Society
Artist=Subjugator
Album=Live
Tracknumber=02
Year=1994
Genre=Thrash Metal



Register


Go to the top of the page
  Insert nick Quick quote
+Quote Post

Reply to this topicStart new topic
1 User(s) are reading this topic (1 Guests and 0 Anonymous Users)
0 Members:

 



- Lo-Fi Version Support form
Copyrights and abuse reports form
Time is now: 24th September 2020 - 04:15:43