Welcome Guest ( Log In | Register )

 
Reply to this topicStart new topic
> Necro Disseminator - Black Antichrist [demo] (1990), Black/Death Metal
post Jan 16 2020, 11:48:50
Post #1

Подвал
**************
Group: Металариец
Posts: 14,081
Releases: 7971
From: Far East (Khabarovsk)
On Forums: 10 years 11 months
Thanks: 78334 time(s)
Russian Federation


(IMG:http://metalarea.org/images/audiocovers/2020_Jan/acov_tid332692_thumb.JPG)

*Artist: Necro Disseminator
*Album: Black Antichrist [demo]
*Year: 1990
*Genre: Black/Death Metal
*Country: Brazil (IMG:http://metalarea.org/forum/style_images/flags/Brazil.png)
*Format: mp3@CBR192kbps
*Size: 8MB

Tracklist:
1. Necro Disseminator 02:57
2. Black Antichrist 03:09
******************************
Total playing time: 6:06

Extended info
Rehearsal 1989.


Technical info
(IMG:http://metalarea.org/images/spectrogram/2020_Jan/3d2185947e74f82aad12b14d034d4ea5.png)
Input File: 01-Necro Disseminator.mp3
Channels : 2
Sample Rate : 44100
Precision : 16-bit
Duration : 00:03:01.07 = 7984967 samples = 13579.9 CDDA sectors
File Size : 4.35M
Bit Rate : 192k
Sample Encoding: MPEG audio (layer I, II or III)
Comments :
Title=Necro Disseminator
Artist=Necro Disseminator
Album=Black Antichrist (demo)
Tracknumber=1
Year=1989
Genre=Black Metal/Grindcore



Register


Go to the top of the page
  Insert nick Quick quote
+Quote Post

Reply to this topicStart new topic
1 User(s) are reading this topic (1 Guests and 0 Anonymous Users)
0 Members:

 



- Lo-Fi Version Support form
Copyrights and abuse reports form
Time is now: 24th January 2020 - 23:34:13