Welcome Guest ( Log In | Register )

> Horned Almighty - To Fathom The Master's Grand Design (2020), Black Metal
post Jan 16 2020, 11:51:39
Post #1

Serial Uploader
Group Icon
Group: V.I.P
Posts: 37,112
Releases: 35296
From: Lithuania
On Forums: 11 years 9 months
Thanks: 418088 time(s)
Lithuania


(IMG:http://metalarea.org/images/audiocovers/2020_Jan/acov_tid332693_thumb.jpg)

*Artist: Horned Almighty
*Album: To Fathom The Master's Grand Design
*Year: 2020
*Genre: Black Metal
*Country: Denmark (IMG:http://metalarea.org/forum/style_images/flags/Denmark.png)
*Format: mp3@CBR320kbps
*Size: 83MB

Tracklist:
01. Violent Cosmology 04:15
02. Apocalyptic Wrath 03:01
03. Antagonism Eternal 05:36
04. Devouring Armageddon 05:03
05. Swallowed by the Earth 06:00
06. The Great Death 03:41
07. Punishment Divine 04:13
08. Witchcraft Demonology 04:32
******************************
Total playing time: 36:21

(IMG:http://metalarea.org/images/myspace.png)




(IMG:https://metalarea.org/images/youtube.png)

Technical info
(IMG:http://metalarea.org/images/spectrogram/2020_Jan/9afffaeba70929b3c6b6b8f99992a0e1.png)
Input File: 02 - Apocalyptic Wrath.mp3
Channels : 2
Sample Rate : 44100
Precision : 16-bit
Duration : 00:03:01.43 = 8001063 samples = 13607.2 CDDA sectors
File Size : 7.33M
Bit Rate : 323k
Sample Encoding: MPEG audio (layer I, II or III)
Comments :
Title=Apocalyptic Wrath
Artist=Horned Almighty
Album=To Fathom the Master's Grand Design
Tracknumber=2
Year=2020
Genre=Metal
Discnumber=1



Register


Go to the top of the page
  Insert nick Quick quote
+Quote Post
 
Start new topic
Replies (1 - 7)
post Jan 16 2020, 16:57:20
Post #2

Маньяк
**********
Group: Металариец
Posts: 1,011
Releases: 4
From: Харьков
On Forums: 11 years 7 months
Thanks: 357 time(s)
Ukraine


Black/Death
Go to the top of the page
  Insert nick Quick quote
+Quote Post
post Jan 16 2020, 17:54:36
Post #3

at the top
**************
Group: Металариец
Posts: 4,677
Releases: 0
From: Одесса
On Forums: 12 years 4 weeks
Thanks: 3233 time(s)
Ukraine


QUOTE(nomadgg1 @ Jan 16 2020, 16:57:20) *
Black/Death

And not the best kind.
Go to the top of the page
  Insert nick Quick quote
+Quote Post
post Jan 16 2020, 21:13:04
Post #4

MDM-Thrash Metal
**************
Group: Металариец
Posts: 9,341
Releases: 790
From: Одесса
On Forums: 12 years 7 months
Thanks: 21290 time(s)
Ukraine


Cloud Mail 320:
Register


Thanks:
Go to the top of the page
  Insert nick Quick quote
+Quote Post
post Jan 18 2020, 06:40:02
Post #5

Маньяк
**********
Group: Металариец
Posts: 1,346
Releases: 3
From: Новороссия
On Forums: 14 years 1 month
Thanks: 739 time(s)
Russian Federation


Прослушал, стандартнейший black / death, нового ничего нет, сыграно, конечно, качественно.
Go to the top of the page
  Insert nick Quick quote
+Quote Post
post Jan 20 2020, 10:55:34
Post #6

Group: Подсевший
Posts: 48
Releases: 0
On Forums: 2 months 2 weeks
Thanks: 13 time(s)
Unknown


Крепкий альбом от ветеранов датской экстремальной сцены. Блэк Метал с очень сильным уклоном в Дэт Метал. Звучит агрессивно, прямолинейно и местами даже брутально. Последние их альбомы не слышал, сравнивать не буду. Но эта пластинка понравилась.


Thanks:
(1) judaz,
Go to the top of the page
  Insert nick Quick quote
+Quote Post
post Jan 20 2020, 16:15:06
Post #7

Три Литра
***
Group: Завсегдатай
Posts: 271
Releases: 0
From: Лыткарино
On Forums: 10 months 3 weeks
Thanks: 62 time(s)
Russian Federation


ЦИТАТА(Cosmic_Sorcerer @ Jan 20 2020, 14:55:34) *
Крепкий альбом от ветеранов датской экстремальной сцены. Блэк Метал с очень сильным уклоном в Дэт Метал. Звучит агрессивно, прямолинейно и местами даже брутально. Последние их альбомы не слышал, сравнивать не буду. Но эта пластинка понравилась.

Да, согласен. Мне тоже понравилось.
Go to the top of the page
  Insert nick Quick quote
+Quote Post
post Jan 21 2020, 19:33:56
Post #8

кручу наждак
**************
Group: Металариец
Posts: 4,316
Releases: 102
From: Самара
On Forums: 9 years 10 months
Thanks: 3423 time(s)
Russian Federation


Мощно валят однако. Слушается на одном дыхании.
Go to the top of the page
  Insert nick Quick quote
+Quote Post

Reply to this topicStart new topic
2 User(s) are reading this topic (2 Guests and 0 Anonymous Users)
0 Members:

 



- Lo-Fi Version Support form
Copyrights and abuse reports form
Time is now: 1st April 2020 - 18:10:44