Welcome Guest ( Log In | Register )

> Releases Upload / Добавление релизов

Добавить релиз тут / Click here to add release
Рекомендованные обменники / Recommended file shares

> Victorius - Space Ninjas From Hell (2020), Power Metal (D7)
post Jan 16 2020, 12:26:05
Post #1

Serial Uploader
Group Icon
Group: V.I.P
Posts: 36,848
Releases: 35034
From: Lithuania
On Forums: 11 years 7 months
Thanks: 411699 time(s)
Lithuania


(IMG:http://metalarea.org/images/audiocovers/2020_Jan/acov_tid332698_thumb.jpg)

*Artist: Victorius
*Album: Space Ninjas From Hell
*Year: 2020
*Genre: Power Metal
*Country: Germany (IMG:http://metalarea.org/forum/style_images/flags/Germany.png)
*Format: mp3@CBR320kbps
*Size: 105MB

Tracklist:
01. Tale of the Sunbladers 04:18
02. Ninjas Unite 04:35
03. Super Sonic Samurai 04:02
04. Evil Wizard WuShu Master 03:51
05. Nippon Knights 03:28
06. Shuriken Showdown 03:34
07. Wasabi Warmachine 04:34
08. Wrath of the Dragongod 03:32
09. Astral Assassin Shark Attack 03:46
10. Space Ninjas from Hell 03:15
11. Cosmic Space Commando Base 04:19
12. Shinobi Strike 3000 02:23
******************************
Total playing time: 45:37

(IMG:http://metalarea.org/images/myspace.png)

(IMG:http://metalarea.org/images/youtube.png)

Technical info
(IMG:http://metalarea.org/images/spectrogram/2020_Jan/0e9a9c6bf9543f8edaa5f382698df986.png)
Input File: 2 - Ninjas Unite.mp3
Channels : 2
Sample Rate : 44100
Precision : 16-bit
Duration : 00:04:34.90 = 12123134 samples = 20617.6 CDDA sectors
File Size : 11.1M
Bit Rate : 323k
Sample Encoding: MPEG audio (layer I, II or III)
Comments :
Title=Ninjas Unite
Artist=Victorius
Album=Space Ninjas From Hell
Tracknumber=2
Year=2020
Genre=Rock/Hard Rock/Metal
Discnumber=1



Register


Go to the top of the page
  Insert nick Quick quote
+Quote Post
 
Start new topic
Replies (1 - 2)
post Jan 16 2020, 18:03:10
Post #2

Шесть Литров
******
Group: Металариец
Posts: 687
Releases: 0
From: Sweden
On Forums: 10 years 10 months
Thanks: 18 time(s)
Sweden


Thanks.
Go to the top of the page
  Insert nick Quick quote
+Quote Post
post Jan 16 2020, 18:15:55
Post #3

MDM-Thrash Metal
**************
Group: Металариец
Posts: 9,203
Releases: 767
From: Одесса
On Forums: 12 years 5 months
Thanks: 20680 time(s)
Ukraine




Cloud Mail 320:
Register


Go to the top of the page
  Insert nick Quick quote
+Quote Post

Reply to this topicStart new topic
1 User(s) are reading this topic (1 Guests and 0 Anonymous Users)
0 Members:

 



- Lo-Fi Version Support form
Copyrights and abuse reports form
Time is now: 25th January 2020 - 00:11:28