Welcome Guest ( Log In | Register )

> Releases Upload / Добавление релизов

Добавить релиз тут / Click here to add release
Рекомендованные обменники / Recommended file shares

> Darktribe - Voici L'homme (2020), Heavy/Power Metal
post Jan 16 2020, 12:34:04
Post #1

Serial Uploader
Group Icon
Group: V.I.P
Posts: 37,017
Releases: 35199
From: Lithuania
On Forums: 11 years 8 months
Thanks: 414940 time(s)
Lithuania


(IMG:http://metalarea.org/images/audiocovers/2020_Jan/acov_tid332699_thumb.jpg)

*Artist: Darktribe
*Album: Voici L'homme
*Year: 2020
*Genre: Heavy/Power Metal
*Country: France (IMG:http://metalarea.org/forum/style_images/flags/France.png)
*Format: mp3@CBR320kbps
*Size: 116MB

Tracklist:
01. March for a Prophecy 01:15
02. Prism of Memory 05:09
03. Voici l'homme 06:05
04. A Silent Curse 04:31
05. Faith and Vision 05:14
06. Back in Light 04:03
07. Under the Tree of Life 05:17
08. According to Darkness 05:44
09. The Hunger Theory 07:26
10. Symbolic Story 05:41
******************************
Total playing time: 50:25

(IMG:http://metalarea.org/images/myspace.png)

(IMG:http://metalarea.org/images/youtube.png)

Technical info
(IMG:http://metalarea.org/images/spectrogram/2020_Jan/340112aca4eb11965e346cb001d90c7f.png)
Input File: 2 - Prism of Memory.mp3
Channels : 2
Sample Rate : 44100
Precision : 16-bit
Duration : 00:05:09.41 = 13645025 samples = 23205.8 CDDA sectors
File Size : 12.4M
Bit Rate : 322k
Sample Encoding: MPEG audio (layer I, II or III)
Comments :
Title=Prism of Memory
Artist=Darktribe
Album=Voici l'homme
Tracknumber=2
Year=2020
Genre=Metal
Discnumber=1



Register


Go to the top of the page
  Insert nick Quick quote
+Quote Post
 
Start new topic
Replies (1 - 4)
post Jan 16 2020, 17:58:42
Post #2

Шесть Литров
******
Group: Металариец
Posts: 692
Releases: 0
From: Sweden
On Forums: 10 years 11 months
Thanks: 19 time(s)
Sweden


Thank you.
Go to the top of the page
  Insert nick Quick quote
+Quote Post
post Jan 16 2020, 18:13:21
Post #3

MDM-Thrash Metal
**************
Group: Металариец
Posts: 9,271
Releases: 781
From: Одесса
On Forums: 12 years 6 months
Thanks: 21036 time(s)
Ukraine




Cloud Mail 320:

Register


Go to the top of the page
  Insert nick Quick quote
+Quote Post
post Jan 16 2020, 19:44:17
Post #4

Тридцать лет на борту "Тяжёлого" крейсера
**************
Group: Металариец
Posts: 2,171
Releases: 0
From: Питер
On Forums: 12 years 8 months
Thanks: 573 time(s)
Russian Federation


Альбом 15-го года был хорош, и мелодиями и вокалом...Здесь же вокалюга и петь разучился и годных мелодий не привозили
Go to the top of the page
  Insert nick Quick quote
+Quote Post
post Feb 2 2020, 15:24:54
Post #5

Перевозчик
**************
Group: Металариец
Posts: 3,114
Releases: 0
On Forums: 11 years 7 months
Thanks: 684 time(s)
Russian Federation


ЦИТАТА(sadmannn @ Jan 16 2020, 21:44:17) *
Альбом 15-го года был хорош, и мелодиями и вокалом...Здесь же вокалюга и петь разучился и годных мелодий не привозили


Go to the top of the page
  Insert nick Quick quote
+Quote Post

Reply to this topicStart new topic
1 User(s) are reading this topic (1 Guests and 0 Anonymous Users)
0 Members:

 



- Lo-Fi Version Support form
Copyrights and abuse reports form
Time is now: 25th February 2020 - 14:04:34