Welcome Guest ( Log In | Register )

> Releases Upload / Добавление релизов

Добавить релиз тут / Click here to add release
Рекомендованные обменники / Recommended file shares

> Veritates - Killing Time (2020), Heavy/Power Metal
post Jan 16 2020, 12:42:00
Post #1

Serial Uploader
Group Icon
Group: V.I.P
Posts: 36,848
Releases: 35034
From: Lithuania
On Forums: 11 years 7 months
Thanks: 411699 time(s)
Lithuania


(IMG:http://metalarea.org/images/audiocovers/2020_Jan/acov_tid332700_thumb.jpg)

*Artist: Veritates
*Album: Killing Time
*Year: 2020
*Genre: Heavy/Power Metal
*Country: Germany (IMG:http://metalarea.org/forum/style_images/flags/Germany.png)
*Format: mp3@CBR320kbps
*Size: 103MB

Tracklist:
01. The Past is Dead 05:44
02. Killing Time 05:16
03. Jerusalem Syndrome 07:03
04. Awakening 05:59
05. Hangmen Also Die 11:23
06. The Wild Hunt 04:42
07. Hasta La Muerte 03:30
******************************
Total playing time: 43:37




(IMG:http://metalarea.org/images/youtube.png)

Technical info
(IMG:http://metalarea.org/images/spectrogram/2020_Jan/5d608be0132e0e256f210fdc6db9aeef.png)
Input File: 2 - Killing Time.mp3
Channels : 2
Sample Rate : 44100
Precision : 16-bit
Duration : 00:05:16.78 = 13969910 samples = 23758.4 CDDA sectors
File Size : 12.8M
Bit Rate : 322k
Sample Encoding: MPEG audio (layer I, II or III)
Comments :
Title=Killing Time
Artist=Veritates
Album=Killing Time
Tracknumber=2
Year=2020
Genre=Rock/Hard Rock/Metal
Discnumber=1



Register


Go to the top of the page
  Insert nick Quick quote
+Quote Post
 
Start new topic
Replies (1 - 1)
post Jan 16 2020, 21:05:38
Post #2

MDM-Thrash Metal
**************
Group: Металариец
Posts: 9,203
Releases: 767
From: Одесса
On Forums: 12 years 5 months
Thanks: 20680 time(s)
Ukraine


Cloud Mail 320:

Register


Thanks:
Go to the top of the page
  Insert nick Quick quote
+Quote Post

Reply to this topicStart new topic
1 User(s) are reading this topic (1 Guests and 0 Anonymous Users)
0 Members:

 



- Lo-Fi Version Support form
Copyrights and abuse reports form
Time is now: 25th January 2020 - 00:48:29