Welcome Guest ( Log In | Register )

> Releases Upload / Добавление релизов

Добавить релиз тут / Click here to add release
Рекомендованные обменники / Recommended file shares

> Mindless Sinner - Poltergeist (2020), Heavy Metal (D4)
post Jan 16 2020, 12:50:04
Post #1

Serial Uploader
Group Icon
Group: V.I.P
Posts: 36,790
Releases: 34977
From: Lithuania
On Forums: 11 years 7 months
Thanks: 410635 time(s)
Lithuania


(IMG:http://metalarea.org/images/audiocovers/2020_Jan/acov_tid332701_thumb.jpg)

*Artist: Mindless Sinner
*Album: Poltergeist
*Year: 2020
*Genre: Heavy Metal
*Country: Sweden (IMG:http://metalarea.org/forum/style_images/flags/Sweden.png)
*Format: mp3@CBR320kbps
*Size: 113MB

Tracklist:
01. Poltergeist 04:59
02. Heavy Metal Mayhem 04:36
03. Valkyrie 05:12
04. World of Madness 04:57
05. The Road to Nowhere 05:37
06. Rewind the Future 04:52
07. The Rise and the Fall 04:14
08. Hammer of Thor 04:46
09. Altar of the King 05:15
10. Roll the Dice 04:47
******************************
Total playing time: 49:15

(IMG:http://metalarea.org/images/myspace.png)


Technical info
(IMG:http://metalarea.org/images/spectrogram/2020_Jan/6ce2a5e579cc602830dabcbd8330feeb.png)
Input File: 2 - Heavy Metal Mayhem.mp3
Channels : 2
Sample Rate : 44100
Precision : 16-bit
Duration : 00:04:35.63 = 12155415 samples = 20672.5 CDDA sectors
File Size : 11.1M
Bit Rate : 322k
Sample Encoding: MPEG audio (layer I, II or III)
Comments :
Title=Heavy Metal Mayhem
Artist=Mindless Sinner
Album=Poltergeist
Tracknumber=2
Year=2020
Genre=Rock/Hard Rock/Metal
Discnumber=1



Register


Go to the top of the page
  Insert nick Quick quote
+Quote Post
 
Start new topic
Replies (1 - 2)
post Jan 16 2020, 17:36:40
Post #2

Group: Подсевший
Posts: 39
Releases: 0
From: Масквич
On Forums: 11 years 7 months
Thanks: 2 time(s)
Russian Federation


А 2015 есть?
Go to the top of the page
  Insert nick Quick quote
+Quote Post
post Jan 16 2020, 21:04:15
Post #3

MDM-Thrash Metal
**************
Group: Металариец
Posts: 9,199
Releases: 765
From: Одесса
On Forums: 12 years 5 months
Thanks: 20609 time(s)
Ukraine


Cloud Mail 320:

Register


Thanks:
(1) AHBAnep,
Go to the top of the page
  Insert nick Quick quote
+Quote Post

Reply to this topicStart new topic
1 User(s) are reading this topic (1 Guests and 0 Anonymous Users)
0 Members:

 



- Lo-Fi Version Support form
Copyrights and abuse reports form
Time is now: 18th January 2020 - 01:09:43